<?xml version="1.0" standalone="no"?>
<!DOCTYPE svg PUBLIC "-//W3C//DTD SVG 1.1//EN" "http://www.w3.org/Graphics/SVG/1.1/DTD/svg11.dtd" >
<svg xmlns="http://www.w3.org/2000/svg" xmlns:xlink="http://www.w3.org/1999/xlink" version="1.1">
<metadata></metadata>
<defs>
<font id="din_next_lt_proregular" horiz-adv-x="1110" >
<font-face units-per-em="2048" ascent="1536" descent="-512" />
<missing-glyph horiz-adv-x="491" />
<glyph unicode="&#xfb01;" horiz-adv-x="1159" d="M84 862v99q0 20 20 20h84q13 0 13 12v84q0 171 71.5 243.5t227.5 72.5h75q9 0 15 -6t6 -15v-119q0 -20 -21 -20h-53q-93 0 -121 -28.5t-28 -119.5v-92q0 -12 12 -12h190q21 0 21 -20v-99q0 -20 -21 -20h-190q-12 0 -12 -13v-809q0 -20 -21 -20h-131q-20 0 -20 20v809 q0 13 -13 13h-84q-20 0 -20 20zM815 1223v149q0 9 6 15t15 6h139q20 0 20 -21v-149q0 -21 -20 -21h-139q-9 0 -15 6t-6 15zM819 20v941q0 20 21 20h131q20 0 20 -20v-941q0 -20 -20 -20h-131q-21 0 -21 20z" />
<glyph unicode="&#xfb02;" horiz-adv-x="1218" d="M84 862v99q0 20 20 20h84q13 0 13 12v84q0 171 71.5 243.5t227.5 72.5h75q9 0 15 -6t6 -15v-119q0 -20 -21 -20h-53q-93 0 -121 -28.5t-28 -119.5v-92q0 -12 12 -12h190q21 0 21 -20v-99q0 -20 -21 -20h-190q-12 0 -12 -13v-809q0 -20 -21 -20h-131q-20 0 -20 20v809 q0 13 -13 13h-84q-20 0 -20 20zM815 248v1124q0 9 6 15t15 6h131q20 0 20 -21v-1114q0 -60 23 -84t75 -24h39q9 0 15 -6t6 -15v-119q0 -20 -21 -20h-69q-127 0 -183.5 62t-56.5 196z" />
<glyph unicode="&#xfb03;" horiz-adv-x="1810" d="M84 862v99q0 20 20 20h84q13 0 13 12v84q0 171 71.5 243.5t227.5 72.5h75q9 0 15 -6t6 -15v-119q0 -20 -21 -20h-53q-93 0 -121 -28.5t-28 -119.5v-92q0 -12 12 -12h190q21 0 21 -20v-99q0 -20 -21 -20h-190q-12 0 -12 -13v-809q0 -20 -21 -20h-131q-20 0 -20 20v809 q0 13 -13 13h-84q-20 0 -20 20zM735 862v99q0 20 21 20h84q12 0 12 12v84q0 171 71.5 243.5t227.5 72.5h76q20 0 20 -21v-119q0 -20 -20 -20h-53q-93 0 -121.5 -28.5t-28.5 -119.5v-92q0 -12 12 -12h191q20 0 20 -20v-99q0 -20 -20 -20h-191q-12 0 -12 -13v-809 q0 -20 -20 -20h-132q-20 0 -20 20v809q0 13 -12 13h-84q-21 0 -21 20zM1466 1223v149q0 9 6 15t15 6h139q9 0 15 -6t6 -15v-149q0 -9 -6 -15t-15 -6h-139q-9 0 -15 6t-6 15zM1470 20v941q0 20 21 20h131q20 0 20 -20v-941q0 -20 -20 -20h-131q-21 0 -21 20z" />
<glyph unicode="&#xfb04;" horiz-adv-x="1869" d="M84 862v99q0 20 20 20h84q13 0 13 12v84q0 171 71.5 243.5t227.5 72.5h75q9 0 15 -6t6 -15v-119q0 -20 -21 -20h-53q-93 0 -121 -28.5t-28 -119.5v-92q0 -12 12 -12h190q21 0 21 -20v-99q0 -20 -21 -20h-190q-12 0 -12 -13v-809q0 -20 -21 -20h-131q-20 0 -20 20v809 q0 13 -13 13h-84q-20 0 -20 20zM735 862v99q0 20 21 20h84q12 0 12 12v84q0 171 71.5 243.5t227.5 72.5h76q20 0 20 -21v-119q0 -20 -20 -20h-53q-93 0 -121.5 -28.5t-28.5 -119.5v-92q0 -12 12 -12h191q20 0 20 -20v-99q0 -20 -20 -20h-191q-12 0 -12 -13v-809 q0 -20 -20 -20h-132q-20 0 -20 20v809q0 13 -12 13h-84q-21 0 -21 20zM1466 248v1124q0 9 6 15t15 6h131q20 0 20 -21v-1114q0 -60 23.5 -84t75.5 -24h39q20 0 20 -21v-119q0 -20 -20 -20h-70q-127 0 -183.5 62t-56.5 196z" />
<glyph horiz-adv-x="0" />
<glyph horiz-adv-x="682" />
<glyph unicode=" "  horiz-adv-x="491" />
<glyph unicode="&#x09;" horiz-adv-x="491" />
<glyph unicode="&#xa0;" horiz-adv-x="491" />
<glyph unicode="!" horiz-adv-x="589" d="M197 20v177q0 20 20 20h156q20 0 20 -20v-177q0 -20 -20 -20h-156q-20 0 -20 20zM199 1372q0 21 20 21h152q20 0 20 -21l-33 -975q0 -20 -20 -20h-86q-21 0 -21 20z" />
<glyph unicode="&#x22;" horiz-adv-x="673" d="M137 1051v321q0 9 6 15t15 6h90q20 0 20 -21v-321q0 -21 -20 -21h-90q-9 0 -15 6t-6 15zM406 1051v321q0 21 20 21h90q9 0 15 -6t6 -15v-321q0 -9 -6 -15t-15 -6h-90q-20 0 -20 21z" />
<glyph unicode="#" horiz-adv-x="1058" d="M49 459v88q0 20 21 20h166l38 287h-153q-21 0 -21 20v87q0 20 21 20h172l53 391q4 21 23 21h92q21 0 18 -21l-53 -391h272l54 391q4 21 22 21h92q22 0 19 -21l-54 -391h158q21 0 21 -20v-87q0 -20 -21 -20h-176l-39 -287h162q20 0 20 -20v-88q0 -21 -20 -21h-178 l-58 -418q-3 -20 -22 -20h-92q-22 0 -19 20l58 418h-273l-57 -418q-3 -20 -23 -20h-92q-21 0 -18 20l57 418h-149q-9 0 -15 6t-6 15zM369 567h272l39 287h-272z" />
<glyph unicode="$" d="M118 128.5q-1 8.5 5 14.5l76 103q11 14 28 2q143 -101 289 -111v492q-183 33 -276 131t-93 250q0 169 101.5 278.5t267.5 124.5v105q0 20 21 20h59q20 0 20 -20v-105q171 -15 306 -102q15 -12 4 -29l-66 -100q-13 -16 -29 -6q-108 63 -215 75v-471q186 -32 279.5 -129 t93.5 -252q0 -171 -99.5 -283t-273.5 -132v-109q0 -20 -20 -20h-59q-21 0 -21 20v102q-221 9 -391 138q-6 5 -7 13.5zM315 1024q0 -89 45.5 -143.5t155.5 -81.5v452q-93 -12 -147 -73t-54 -154zM616 143q97 18 151 81.5t54 164.5q0 86 -48 141t-157 80v-467z" />
<glyph unicode="%" horiz-adv-x="1593" d="M154 1042q0 104 3 140.5t13 68.5q25 73 87 115.5t149 42.5q86 0 148 -42.5t87 -115.5q10 -32 13 -68.5t3 -140.5t-3 -140t-13 -68q-25 -73 -87 -115.5t-148 -42.5q-87 0 -149 42.5t-87 115.5q-10 32 -13 68t-3 140zM285 1042q0 -143 10 -176q24 -71 111 -71q86 0 110 71 q10 33 10 176q0 144 -10 177q-24 71 -110 71q-87 0 -111 -71q-10 -33 -10 -177zM321 -16.5q-4 6.5 1 14.5l808 1397q11 20 33 20h99q9 0 12 -6.5t-2 -13.5l-809 -1397q-12 -21 -31 -21h-98q-9 0 -13 6.5zM936 348q0 104 3 140.5t13 68.5q25 73 87 115.5t149 42.5 q86 0 148 -42.5t87 -115.5q10 -33 13.5 -69.5t3.5 -139.5t-3.5 -139.5t-13.5 -69.5q-25 -73 -86.5 -115t-148.5 -42t-149 42t-87 115q-10 32 -13 68.5t-3 140.5zM1067 348q0 -143 10 -176q25 -72 111 -72q85 0 110 72q11 37 11 176t-11 176q-25 72 -110 72q-86 0 -111 -72 q-10 -33 -10 -176z" />
<glyph unicode="&#x26;" horiz-adv-x="1296" d="M143 342q0 114 65.5 216t211.5 220q-100 130 -137 198.5t-37 139.5q0 129 90 214t229 85q143 0 231.5 -86.5t88.5 -212.5q0 -91 -54 -168.5t-194 -191.5l264 -340l141 174q13 17 29 4l80 -70q16 -13 4 -28l-160 -203l68 -88q40 -49 82 -49h31q20 0 20 -21v-115 q0 -20 -20 -20h-56q-63 0 -99.5 19.5t-78.5 76.5l-55 72q-92 -100 -181 -145.5t-196 -45.5q-173 0 -270 101t-97 264zM305 352q0 -104 57 -163.5t160 -59.5q72 0 135 37t138 123l-283 368q-110 -87 -158.5 -158t-48.5 -147zM412 1118q0 -42 26 -86.5t109 -152.5 q110 85 144 135t34 106q0 64 -44.5 107t-115.5 43q-72 0 -112.5 -42.5t-40.5 -109.5z" />
<glyph unicode="'" horiz-adv-x="405" d="M137 1051v321q0 9 6 15t15 6h90q20 0 20 -21v-321q0 -21 -20 -21h-90q-9 0 -15 6t-6 15z" />
<glyph unicode="(" horiz-adv-x="583" d="M129 672q0 214 62 427.5t182 395.5q15 21 33 21h71q9 0 12.5 -6t-0.5 -15q-93 -185 -143.5 -399t-50.5 -424q0 -209 51.5 -425t142.5 -399q4 -9 0.5 -14.5t-12.5 -5.5h-71q-19 0 -33 20q-120 183 -182 396.5t-62 427.5z" />
<glyph unicode=")" horiz-adv-x="583" d="M93.5 -166.5q-3.5 5.5 0.5 14.5q92 183 143.5 399t51.5 425t-51 423t-144 400q-4 9 -0.5 15t12.5 6h72q18 0 33 -21q120 -182 182 -395.5t62 -427.5t-62 -427.5t-182 -396.5q-14 -20 -33 -20h-72q-9 0 -12.5 5.5z" />
<glyph unicode="*" horiz-adv-x="700" d="M84 985q-12 19 8 29l156 86l-156 90q-20 10 -8 29l31 57q12 19 28 6l156 -94v184q0 21 20 21h62q20 0 20 -21l-2 -184l158 94q8 6 16 4t13 -10l30 -57q12 -19 -8 -29l-155 -90l155 -86q20 -10 8 -29l-30 -57q-5 -8 -13 -10t-16 4l-158 92l2 -183q0 -20 -20 -20h-62 q-20 0 -20 20v183l-156 -92q-16 -13 -28 6z" />
<glyph unicode="+" d="M125 510v111q0 20 20 20h320q12 0 12 12v324q0 20 21 20h114q21 0 21 -20v-324q0 -12 12 -12h320q20 0 20 -20v-111q0 -21 -20 -21h-320q-12 0 -12 -12v-323q0 -9 -6 -15t-15 -6h-114q-9 0 -15 6t-6 15v323q0 12 -12 12h-320q-20 0 -20 21z" />
<glyph unicode="," horiz-adv-x="471" d="M143 197q0 20 21 20h143q21 0 21 -20v-191q0 -27 -13 -45l-127 -168q-11 -14 -26 -14q-8 0 -13.5 5.5t-5.5 12.5v400z" />
<glyph unicode="-" horiz-adv-x="778" d="M96 485v119q0 9 6 15t15 6h545q20 0 20 -21v-119q0 -20 -20 -20h-545q-21 0 -21 20z" />
<glyph unicode="." horiz-adv-x="483" d="M143 20v177q0 20 21 20h155q21 0 21 -20v-177q0 -20 -21 -20h-155q-21 0 -21 20z" />
<glyph unicode="/" horiz-adv-x="854" d="M125 -2l453 1397q7 20 26 20h111q9 0 13 -5.5t1 -14.5l-455 -1397q-7 -21 -26 -21h-109q-9 0 -13 6t-1 15z" />
<glyph unicode="0" d="M143 696q0 154 5 252t10.5 134.5t15.5 68.5q41 128 139 196t242 68t242 -68t139 -196q10 -32 15.5 -68.5t10.5 -134.5t5 -252t-5 -252t-10.5 -134t-15.5 -68q-41 -128 -139 -196.5t-242 -68.5t-242 68.5t-139 196.5q-10 32 -15.5 68t-10.5 134t-5 252zM322 696 q0 -221 5 -302.5t17 -117.5q24 -68 79 -103.5t132 -35.5t132 35.5t79 103.5q12 36 17 117.5t5 302.5t-5 302.5t-17 117.5q-24 68 -79 103.5t-132 35.5t-132 -35.5t-79 -103.5q-12 -36 -17 -117.5t-5 -302.5z" />
<glyph unicode="1" d="M242 1026v152q0 17 14 28l240 174q16 13 32 13h123q9 0 15 -6t6 -15v-1352q0 -20 -21 -20h-131q-20 0 -20 20v1156h-4l-232 -162q-9 -6 -15.5 -3t-6.5 15z" />
<glyph unicode="2" d="M162 20v107q0 17 10 29l502 639q98 125 98 241q0 96 -59.5 157.5t-159.5 61.5q-97 0 -154.5 -53.5t-72.5 -150.5q-3 -20 -23 -17l-125 27q-19 6 -16 24q7 64 35.5 122t76 105t121 75t162.5 28q179 0 285 -107t106 -272q0 -164 -135 -334l-430 -540v-2h545q20 0 20 -21 v-119q0 -20 -20 -20h-746q-20 0 -20 20z" />
<glyph unicode="3" d="M137 272q-3 18 17 25l125 31q17 6 24 -15q25 -76 85.5 -126t162.5 -50q110 0 175 69t65 177q0 117 -69.5 187.5t-186.5 70.5h-62q-20 0 -20 21v118q0 21 20 21h59q104 0 168 63.5t64 169.5q0 98 -60 159.5t-163 61.5q-91 0 -146.5 -47t-75.5 -123q-6 -19 -24 -16l-123 31 q-19 3 -16 24q23 124 127 207.5t264 83.5q181 0 287 -105t106 -272q0 -99 -47.5 -175t-124.5 -124v-4q76 -33 137.5 -124.5t61.5 -221.5q0 -182 -117 -297t-299 -115q-164 0 -274 81.5t-140 213.5z" />
<glyph unicode="4" d="M109 264v113q0 12 6 24l450 975q9 17 29 17h137q10 0 13.5 -5.5t0.5 -13.5l-444 -968v-5h369q12 0 12 13v364q0 21 20 21h132q20 0 20 -21v-364q0 -13 12 -13h127q21 0 21 -20v-117q0 -20 -21 -20h-127q-12 0 -12 -13v-211q0 -20 -20 -20h-132q-20 0 -20 20v211 q0 13 -12 13h-541q-20 0 -20 20z" />
<glyph unicode="5" d="M176 268q-2 9 3 16.5t14 8.5l120 31q20 3 27 -17q18 -77 76 -123.5t151 -46.5q73 0 127.5 35.5t77.5 101.5q19 53 19 175q0 117 -21 176q-45 135 -203 135q-78 0 -132 -37.5t-73 -91.5q-9 -21 -24 -21h-121q-20 0 -20 21v741q0 21 20 21h701q20 0 20 -21v-119 q0 -20 -20 -20h-549q-13 0 -13 -12v-392h6q28 37 89 64t141 27q128 0 218 -59t126 -171q31 -102 31 -241q0 -137 -29 -226q-38 -117 -137.5 -181.5t-233.5 -64.5q-159 0 -264.5 80.5t-126.5 210.5z" />
<glyph unicode="6" d="M129 403q0 148 92 318l354 657q7 15 27 15h139q23 0 13 -21l-312 -577l4 -4q48 32 142 32q169 0 282 -113.5t113 -299.5q0 -199 -121 -316t-307 -117q-187 0 -306.5 115t-119.5 311zM305 401q0 -118 68.5 -191t181.5 -73t182.5 73t69.5 191q0 117 -69 190t-183 73 q-113 0 -181.5 -72.5t-68.5 -190.5z" />
<glyph unicode="7" d="M176 1047v325q0 9 6 15t15 6h743q9 0 15 -6t6 -15v-127q0 -5 -5 -20l-479 -1207q-5 -11 -9.5 -14.5t-16.5 -3.5h-138q-9 0 -12.5 6t0.5 17l475 1204v6h-424q-12 0 -12 -12v-174q0 -9 -6 -15t-15 -6h-122q-9 0 -15 6t-6 15z" />
<glyph unicode="8" d="M125 387q0 118 54.5 207.5t142.5 136.5v4q-71 39 -117.5 117.5t-46.5 177.5q0 162 108.5 273.5t288.5 111.5q121 0 213 -53t138 -139.5t46 -192.5q0 -99 -46.5 -177.5t-117.5 -117.5v-4q88 -47 142.5 -136.5t54.5 -207.5q0 -183 -119.5 -296.5t-310.5 -113.5 t-310.5 113.5t-119.5 296.5zM301 395q0 -113 70.5 -185.5t183.5 -72.5q114 0 184 72t70 186q0 112 -70 184t-184 72t-184 -72t-70 -184zM334 1034q0 -95 61 -159t160 -64t160 64t61 159q0 94 -61.5 157.5t-159.5 63.5t-159.5 -63.5t-61.5 -157.5z" />
<glyph unicode="9" d="M127 983q0 199 120.5 315.5t307.5 116.5t306.5 -115t119.5 -311q0 -147 -92 -317l-354 -658q-7 -14 -27 -14h-139q-23 0 -13 20l312 578l-4 4q-50 -33 -142 -33q-168 0 -281.5 114t-113.5 300zM303 991q0 -117 69 -189.5t183 -72.5q113 0 181.5 72t68.5 190t-68.5 191 t-181.5 73t-182.5 -73t-69.5 -191z" />
<glyph unicode=":" horiz-adv-x="499" d="M152 20v177q0 20 20 20h156q20 0 20 -20v-177q0 -20 -20 -20h-156q-20 0 -20 20zM152 784v177q0 20 20 20h156q20 0 20 -20v-177q0 -20 -20 -20h-156q-20 0 -20 20z" />
<glyph unicode=";" horiz-adv-x="499" d="M152 784v177q0 20 20 20h156q20 0 20 -20v-177q0 -20 -20 -20h-156q-20 0 -20 20zM158 197q0 20 20 20h144q20 0 20 -20v-191q0 -26 -12 -43l-127 -170q-11 -14 -27 -14q-8 0 -13 5.5t-5 12.5v400z" />
<glyph unicode="&#x3c;" d="M125 516v96q0 20 20 29l820 336q20 7 20 -12v-127q0 -20 -20 -27l-617 -244v-4l617 -244q20 -8 20 -26v-127q0 -19 -20 -12l-820 335q-20 7 -20 27z" />
<glyph unicode="=" d="M125 305v111q0 20 20 20h820q20 0 20 -20v-111q0 -20 -20 -20h-820q-20 0 -20 20zM125 715v110q0 21 20 21h820q20 0 20 -21v-110q0 -21 -20 -21h-820q-20 0 -20 21z" />
<glyph unicode="&#x3e;" d="M125 166v127q0 19 20 26l617 244v4l-617 244q-20 7 -20 27v127q0 19 20 12l820 -336q20 -9 20 -29v-96q0 -20 -20 -27l-820 -335q-20 -7 -20 12z" />
<glyph unicode="?" horiz-adv-x="933" d="M84 1090q24 150 125.5 237.5t259.5 87.5q165 0 268 -97.5t103 -250.5q0 -70 -25 -130t-80 -136l-137 -189q-32 -43 -42.5 -72.5t-10.5 -80.5v-66q0 -20 -21 -20h-135q-20 0 -20 20v84q0 59 13.5 99t47.5 86l137 188q56 76 76.5 120t20.5 95q0 87 -55 138.5t-144 51.5 q-86 0 -140 -50t-73 -144q-3 -20 -23 -17l-129 23q-19 3 -16 23zM358 20v177q0 20 21 20h156q20 0 20 -20v-177q0 -20 -20 -20h-156q-21 0 -21 20z" />
<glyph unicode="@" horiz-adv-x="1816" d="M96 549q0 175 59.5 324.5t165.5 254.5t256.5 164.5t327.5 59.5q176 0 326 -59.5t256 -165t165.5 -255t59.5 -323.5q0 -217 -91.5 -326.5t-234.5 -109.5q-87 0 -150 38.5t-93 106.5h-2q-71 -143 -277 -143q-226 0 -293 200q-26 89 -26 224q0 134 26 223q67 201 287 201 q86 0 146.5 -31.5t89.5 -79.5h4v72q0 18 16 18h109q18 0 18 -18v-504q0 -86 41.5 -130t103.5 -44q80 0 130.5 71t50.5 232q0 196 -81 348t-231.5 237t-349.5 85q-301 0 -482 -184.5t-181 -485.5q0 -302 181 -487t482 -185q250 0 443 94q19 10 28 -8l33 -82q9 -16 -8 -26 q-205 -111 -496 -111q-177 0 -327.5 59t-256.5 164t-165.5 255t-59.5 327zM692 539q0 -103 19 -162q43 -127 184 -127q140 0 186 127q17 52 17 162q0 109 -17 161q-46 127 -186 127q-141 0 -184 -127q-19 -59 -19 -161z" />
<glyph unicode="A" horiz-adv-x="1243" d="M49 20l483 1352q7 21 25 21h133q20 0 27 -21l477 -1352q3 -9 -1 -14.5t-13 -5.5h-144q-20 0 -26 20l-107 304h-563l-107 -304q-9 -20 -26 -20h-144q-9 0 -13 5.5t-1 14.5zM399 492h445l-219 632h-4z" />
<glyph unicode="B" horiz-adv-x="1236" d="M172 20v1352q0 9 6 15t15 6h493q206 0 313 -98t107 -269q0 -117 -50 -193t-136 -110v-4q81 -23 145.5 -108.5t64.5 -213.5q0 -194 -117.5 -295.5t-336.5 -101.5h-483q-21 0 -21 20zM354 178q0 -12 13 -12h325q123 0 189.5 61.5t66.5 167.5q0 105 -67 167.5t-189 62.5 h-325q-13 0 -13 -13v-434zM354 803q0 -12 13 -12h315q114 0 179 59.5t65 157.5q0 101 -65 160t-179 59h-315q-13 0 -13 -13v-411z" />
<glyph unicode="C" horiz-adv-x="1159" d="M123 696q0 168 8 248.5t29 142.5q52 162 171 245t292 83q155 0 270.5 -73t175.5 -207q7 -18 -8 -27l-123 -59q-9 -4 -17.5 -1t-11.5 11q-94 186 -286 186q-219 0 -289 -205q-15 -46 -21 -117.5t-6 -226.5q0 -259 27 -344q70 -205 289 -205q192 0 286 187q3 8 11.5 11 t17.5 -1l123 -59q15 -9 8 -27q-60 -134 -176 -207.5t-270 -73.5q-173 0 -292 83t-171 245q-21 62 -29 142.5t-8 248.5z" />
<glyph unicode="D" horiz-adv-x="1275" d="M172 20v1352q0 9 6 15t15 6h469q359 0 454 -297q20 -62 28.5 -143t8.5 -257t-8.5 -256.5t-28.5 -142.5q-95 -297 -454 -297h-469q-21 0 -21 20zM354 182q0 -12 13 -12h256q128 0 206 45t111 145q29 82 29 336t-29 336q-33 100 -111 145.5t-206 45.5h-256q-13 0 -13 -13 v-1028z" />
<glyph unicode="E" horiz-adv-x="1153" d="M172 20v1352q0 9 6 15t15 6h837q9 0 15 -6t6 -15v-129q0 -20 -21 -20h-663q-13 0 -13 -13v-409q0 -13 13 -13h563q20 0 20 -20v-129q0 -21 -20 -21h-563q-13 0 -13 -12v-424q0 -12 13 -12h663q21 0 21 -20v-130q0 -20 -21 -20h-837q-21 0 -21 20z" />
<glyph unicode="F" horiz-adv-x="1138" d="M172 20v1352q0 9 6 15t15 6h837q9 0 15 -6t6 -15v-129q0 -20 -21 -20h-663q-13 0 -13 -13v-424q0 -12 13 -12h563q20 0 20 -20v-129q0 -21 -20 -21h-563q-13 0 -13 -12v-572q0 -20 -20 -20h-141q-21 0 -21 20z" />
<glyph unicode="G" horiz-adv-x="1267" d="M123 696q0 164 8.5 247t28.5 147q52 160 175 242.5t302 82.5q117 0 212 -38t154.5 -97.5t96.5 -140.5q10 -20 -6 -29l-123 -59q-19 -10 -29 10q-52 95 -124 139.5t-181 44.5q-234 0 -301 -207q-29 -82 -29 -342t29 -342q67 -207 301 -207q108 0 187.5 52t111.5 149 q27 91 27 219q0 13 -13 13h-270q-21 0 -21 20v119q0 20 21 20h444q21 0 21 -20v-105q0 -188 -35 -307q-51 -158 -175 -244t-298 -86q-179 0 -302 83t-175 243q-20 64 -28.5 146.5t-8.5 246.5z" />
<glyph unicode="H" horiz-adv-x="1337" d="M172 20v1352q0 9 6 15t15 6h141q20 0 20 -21v-571q0 -13 13 -13h604q12 0 12 13v571q0 9 6 15t15 6h141q20 0 20 -21v-1352q0 -20 -20 -20h-141q-21 0 -21 20v586q0 12 -12 12h-604q-13 0 -13 -12v-586q0 -20 -20 -20h-141q-21 0 -21 20z" />
<glyph unicode="I" horiz-adv-x="526" d="M172 20v1352q0 9 6 15t15 6h141q20 0 20 -21v-1352q0 -20 -20 -20h-141q-21 0 -21 20z" />
<glyph unicode="J" horiz-adv-x="1005" d="M68 121q-14 15 0 29l102 88q14 12 31 -5q90 -86 202 -86q124 0 191.5 74.5t67.5 224.5v926q0 21 20 21h141q9 0 15 -6t6 -15v-926q0 -228 -119.5 -348.5t-327.5 -120.5q-99 0 -187.5 40.5t-141.5 103.5z" />
<glyph unicode="K" horiz-adv-x="1261" d="M172 20v1352q0 9 6 15t15 6h141q20 0 20 -21v-725l592 727q14 19 33 19h168q9 0 12 -8t-4 -17l-434 -522l477 -823q6 -9 2.5 -16t-14.5 -7h-164q-19 0 -29 18l-391 687l-248 -299v-386q0 -20 -20 -20h-141q-21 0 -21 20z" />
<glyph unicode="L" horiz-adv-x="1101" d="M172 20v1352q0 9 6 15t15 6h141q20 0 20 -21v-1190q0 -12 13 -12h663q21 0 21 -20v-130q0 -20 -21 -20h-837q-21 0 -21 20z" />
<glyph unicode="M" horiz-adv-x="1546" d="M172 20v1352q0 9 6 15t15 6h133q23 0 32 -21l416 -938h6l408 938q9 21 33 21h133q20 0 20 -21v-1352q0 -20 -20 -20h-129q-21 0 -21 20v969h-6l-346 -766q-11 -24 -37 -24h-82q-28 0 -39 24l-346 766h-6v-969q0 -20 -20 -20h-129q-21 0 -21 20z" />
<glyph unicode="N" horiz-adv-x="1339" d="M172 20v1352q0 9 6 15t15 6h131q24 0 34 -21l631 -1044h8v1044q0 9 6 15t15 6h129q20 0 20 -21v-1352q0 -20 -20 -20h-131q-25 0 -35 20l-633 1041h-6v-1041q0 -20 -20 -20h-129q-21 0 -21 20z" />
<glyph unicode="O" horiz-adv-x="1267" d="M123 696q0 168 8 250t29 144q54 160 175.5 242.5t297.5 82.5q178 0 299.5 -82.5t175.5 -242.5q21 -62 29 -144t8 -250q0 -167 -8 -249t-29 -144q-54 -160 -175.5 -243t-299.5 -83q-176 0 -297.5 83t-175.5 243q-21 62 -29 144t-8 249zM307 696q0 -243 31 -342 q67 -207 295 -207q230 0 297 207q31 99 31 342t-31 342q-67 207 -297 207q-228 0 -295 -207q-31 -99 -31 -342z" />
<glyph unicode="P" horiz-adv-x="1212" d="M172 20v1352q0 9 6 15t15 6h495q201 0 321.5 -113.5t120.5 -302.5t-120.5 -302.5t-321.5 -113.5h-321q-13 0 -13 -12v-529q0 -20 -20 -20h-141q-21 0 -21 20zM354 743q0 -12 13 -12h311q128 0 200 65.5t72 180.5t-72 180.5t-200 65.5h-311q-13 0 -13 -13v-467z" />
<glyph unicode="Q" horiz-adv-x="1267" d="M123 696q0 168 8 250t29 144q54 160 175.5 242.5t297.5 82.5q178 0 299.5 -82.5t175.5 -242.5q21 -62 29 -144t8 -250q0 -167 -8 -249t-29 -144q-17 -52 -53 -115l145 -143q13 -13 0 -29l-90 -96q-16 -16 -31 0l-143 141q-122 -84 -303 -84q-176 0 -297.5 83t-175.5 243 q-21 62 -29 144t-8 249zM307 696q0 -243 31 -342q67 -207 295 -207q106 0 176 43l-152 154q-13 13 0 29l91 98q16 12 28 0l144 -145l10 28q31 99 31 342t-31 342q-67 207 -297 207q-228 0 -295 -207q-31 -99 -31 -342z" />
<glyph unicode="R" horiz-adv-x="1263" d="M172 20v1352q0 9 6 15t15 6h503q196 0 316.5 -110.5t120.5 -291.5q0 -139 -73.5 -239t-201.5 -140l297 -587q6 -9 2 -17t-14 -8h-164q-18 0 -27 20l-278 570h-307q-13 0 -13 -12v-558q0 -20 -20 -20h-141q-21 0 -21 20zM354 772q0 -12 13 -12h325q121 0 189.5 61 t68.5 170t-68.5 170.5t-189.5 61.5h-325q-13 0 -13 -13v-438z" />
<glyph unicode="S" horiz-adv-x="1210" d="M102 182l91 107q12 15 28 2q77 -62 177.5 -103t211.5 -41q143 0 225.5 65.5t82.5 172.5q0 95 -65.5 150.5t-225.5 76.5l-70 11q-410 56 -410 385q0 186 124 296.5t331 110.5q120 0 232.5 -35t191.5 -94q17 -13 4 -29l-69 -112q-12 -14 -29 -4q-168 104 -336 104 q-125 0 -194.5 -61.5t-69.5 -163.5q0 -91 68.5 -146.5t224.5 -76.5l67 -11q205 -28 307.5 -124t102.5 -265q0 -189 -131.5 -304.5t-376.5 -115.5q-142 0 -275.5 50.5t-214.5 124.5q-14 14 -2 30z" />
<glyph unicode="T" horiz-adv-x="1099" d="M45 1243v129q0 9 6 15t15 6h968q9 0 15 -6t6 -15v-129q0 -20 -21 -20h-381q-12 0 -12 -13v-1190q0 -20 -20 -20h-142q-20 0 -20 20v1190q0 13 -13 13h-380q-21 0 -21 20z" />
<glyph unicode="U" horiz-adv-x="1308" d="M162 485v887q0 21 20 21h142q20 0 20 -21v-885q0 -165 84 -252.5t227 -87.5q142 0 226 87.5t84 252.5v885q0 21 20 21h141q9 0 15 -6t6 -15v-887q0 -244 -130.5 -376t-361.5 -132q-232 0 -362.5 132t-130.5 376z" />
<glyph unicode="V" horiz-adv-x="1150" d="M41 1368q-4 11 0 18t14 7h140q22 0 28 -21l357 -1075h4l344 1075q6 21 26 21h142q10 0 14 -7t0 -18l-448 -1348q-7 -20 -25 -20h-121q-17 0 -24 20z" />
<glyph unicode="W" horiz-adv-x="1685" d="M49 1372q-3 9 2 15t15 6h135q21 0 24 -21l248 -1034h4l289 1034q7 21 25 21h104q18 0 25 -21l294 -1034h5l241 1034q6 21 27 21h133q20 0 16 -21l-336 -1352q-3 -20 -24 -20h-113q-15 0 -22 20l-297 1039h-4l-295 -1039q-7 -20 -25 -20h-112q-20 0 -23 20z" />
<glyph unicode="X" horiz-adv-x="1142" d="M46.5 8q-3.5 8 2.5 17l420 700l-383 643q-6 9 -2.5 17t12.5 8h160q18 0 31 -19l282 -471h2l285 471q10 19 29 19h159q10 0 14 -8t-1 -17l-385 -643l422 -700q5 -9 1 -17t-14 -8h-161q-20 0 -29 18l-320 531h-2l-319 -531q-12 -18 -31 -18h-160q-9 0 -12.5 8z" />
<glyph unicode="Y" horiz-adv-x="1077" d="M37 1370q-3 9 1.5 16t14.5 7h146q18 0 30 -21l312 -596h4l309 596q9 21 29 21h141q24 0 16 -23l-411 -801v-549q0 -20 -21 -20h-139q-20 0 -20 20v549z" />
<glyph unicode="Z" horiz-adv-x="1097" d="M100 20v130q0 10 9 22l679 1049v2h-643q-20 0 -20 20v129q0 21 20 21h832q20 0 20 -21v-129q0 -11 -8 -22l-682 -1049v-2h670q20 0 20 -20v-130q0 -20 -20 -20h-856q-21 0 -21 20z" />
<glyph unicode="[" horiz-adv-x="575" d="M164 -152v1647q0 21 20 21h295q9 0 15 -6t6 -15v-98q0 -9 -6 -15t-15 -6h-141q-12 0 -12 -12v-1384q0 -13 12 -13h141q21 0 21 -20v-99q0 -20 -21 -20h-295q-20 0 -20 20z" />
<glyph unicode="\" horiz-adv-x="854" d="M125 1395q-3 9 1 14.5t13 5.5h109q19 0 26 -20l455 -1397q3 -9 -1 -15t-13 -6h-111q-19 0 -26 21z" />
<glyph unicode="]" horiz-adv-x="575" d="M76 -53q0 20 20 20h142q12 0 12 13v1384q0 12 -12 12h-142q-20 0 -20 21v98q0 21 20 21h295q9 0 15 -6t6 -15v-1647q0 -20 -21 -20h-295q-20 0 -20 20v99z" />
<glyph unicode="^" d="M126.5 563q-3.5 6 0.5 15l354 794q11 21 29 21h90q18 0 29 -21l354 -794q4 -9 0.5 -15t-12.5 -6h-119q-20 0 -29 21l-266 598h-4l-266 -598q-9 -21 -27 -21h-121q-9 0 -12.5 6z" />
<glyph unicode="_" horiz-adv-x="974" d="M0 -156h975v-114h-975v114z" />
<glyph unicode="`" horiz-adv-x="862" d="M259.5 1427q3.5 7 12.5 7h136q24 0 36 -21l154 -252q4 -9 0.5 -14.5t-12.5 -5.5h-97q-23 0 -38 20l-189 252q-6 7 -2.5 14z" />
<glyph unicode="a" horiz-adv-x="1062" d="M119 272q0 152 99.5 227.5t283.5 75.5h223q12 0 12 13v71q0 104 -51 148.5t-184 44.5q-141 0 -238 -70q-18 -14 -28 2l-56 95q-8 16 4 28q126 97 334 97q209 0 297 -76t88 -258v-650q0 -20 -20 -20h-121q-21 0 -21 20v86h-2q-36 -59 -109.5 -94t-180.5 -35 q-146 0 -238 75.5t-92 219.5zM285 279q0 -75 52.5 -114.5t151.5 -39.5q116 0 182 51t66 141v109q0 12 -12 12h-197q-127 0 -185 -38t-58 -121z" />
<glyph unicode="b" horiz-adv-x="1101" d="M168 20v1352q0 21 20 21h131q9 0 15 -6t6 -15v-504h2q82 136 279 136q128 0 214 -60t123 -176q35 -101 35 -276q0 -178 -35 -279q-37 -116 -123 -176t-214 -60q-196 0 -279 138h-2v-95q0 -20 -21 -20h-131q-20 0 -20 20zM340 492q0 -140 22 -205q51 -150 218 -150 q163 0 215 150q22 70 22 205q0 131 -22 204q-51 148 -215 148q-168 0 -218 -148q-22 -67 -22 -204z" />
<glyph unicode="c" horiz-adv-x="966" d="M109 492q0 149 30 247q41 127 143 196t244 69q219 0 336 -166q10 -16 -6 -29l-90 -74q-17 -13 -29 2q-45 56 -92.5 81.5t-118.5 25.5q-81 0 -138 -39.5t-81 -114.5q-22 -70 -22 -198q0 -131 22 -201q24 -75 81 -114.5t138 -39.5q71 0 118.5 25.5t92.5 81.5q12 15 29 2 l90 -74q16 -13 6 -29q-117 -166 -336 -166q-142 0 -244 69t-143 196q-30 98 -30 250z" />
<glyph unicode="d" horiz-adv-x="1101" d="M109 492q0 178 34 276q37 116 123.5 176t214.5 60q197 0 279 -136h2v504q0 21 20 21h131q9 0 15 -6t6 -15v-1352q0 -20 -21 -20h-131q-20 0 -20 20v95h-2q-83 -138 -279 -138q-128 0 -214.5 60t-123.5 176q-34 98 -34 279zM285 492q0 -135 22 -205q52 -150 215 -150 q166 0 217 150q23 68 23 205q0 134 -23 204q-50 148 -217 148q-164 0 -215 -148q-22 -73 -22 -204z" />
<glyph unicode="e" horiz-adv-x="1048" d="M109 492q0 158 30 247q41 127 142.5 196t242.5 69t242.5 -69.5t142.5 -195.5q31 -98 31 -280q0 -21 -22 -21h-621q-12 0 -12 -12q0 -66 16 -119q59 -170 248 -170q157 0 252 109q16 16 30 4l84 -76q16 -13 3 -29q-61 -77 -160 -122.5t-223 -45.5q-149 0 -251.5 69.5 t-142.5 197.5q-32 101 -32 248zM285 588q0 -13 12 -13h455q12 0 12 13q0 67 -14 110q-25 74 -84 114t-142 40t-141.5 -40t-83.5 -114q-14 -43 -14 -110z" />
<glyph unicode="f" horiz-adv-x="651" d="M84 862v99q0 20 20 20h84q13 0 13 12v84q0 171 71.5 243.5t227.5 72.5h75q9 0 15 -6t6 -15v-119q0 -20 -21 -20h-53q-93 0 -121 -28.5t-28 -119.5v-92q0 -12 12 -12h190q21 0 21 -20v-99q0 -20 -21 -20h-190q-12 0 -12 -13v-809q0 -20 -21 -20h-131q-20 0 -20 20v809 q0 13 -13 13h-84q-20 0 -20 20z" />
<glyph unicode="g" horiz-adv-x="1083" d="M106 508q0 160 33 258q37 116 121.5 177t208.5 61q197 0 272 -136h2v93q0 20 21 20h131q20 0 20 -20v-918q0 -209 -110.5 -321.5t-317.5 -112.5q-103 0 -196.5 40t-143.5 105q-12 14 3 29l83 84q15 15 31 0q109 -98 232 -98q247 0 247 264v114h-2q-74 -135 -272 -135 q-124 0 -208.5 61t-121.5 177q-33 98 -33 258zM281 508q0 -118 24 -191q51 -147 207 -147q158 0 209 147q22 67 22 191q0 120 -22 190q-51 146 -209 146q-156 0 -207 -146q-24 -76 -24 -190z" />
<glyph unicode="h" horiz-adv-x="1114" d="M168 20v1352q0 21 20 21h131q9 0 15 -6t6 -15v-502h2q37 60 108 97t166 37q158 0 249 -100t91 -269v-615q0 -20 -20 -20h-131q-21 0 -21 20v574q0 120 -55 185t-164 65q-100 0 -162.5 -66t-62.5 -174v-584q0 -20 -21 -20h-131q-20 0 -20 20z" />
<glyph unicode="i" horiz-adv-x="507" d="M164 1223v149q0 21 20 21h140q20 0 20 -21v-149q0 -21 -20 -21h-140q-20 0 -20 21zM168 20v941q0 20 20 20h131q21 0 21 -20v-941q0 -20 -21 -20h-131q-20 0 -20 20z" />
<glyph unicode="j" horiz-adv-x="507" d="M-14 -229q0 20 20 20h33q73 0 101 27t28 104v1039q0 20 20 20h131q21 0 21 -20v-1035q0 -156 -71 -225.5t-222 -69.5h-41q-20 0 -20 21v119zM164 1223v149q0 21 20 21h140q20 0 20 -21v-149q0 -21 -20 -21h-140q-20 0 -20 21z" />
<glyph unicode="k" horiz-adv-x="1046" d="M168 20v1352q0 21 20 21h131q9 0 15 -6t6 -15v-866l387 457q15 18 37 18h151q9 0 12 -6.5t-3 -13.5l-301 -351l362 -590q5 -6 1 -13t-13 -7h-152q-22 0 -33 20l-278 457l-170 -198v-259q0 -20 -21 -20h-131q-20 0 -20 20z" />
<glyph unicode="l" horiz-adv-x="567" d="M164 248v1124q0 21 20 21h131q9 0 15 -6t6 -15v-1114q0 -60 23 -84t75 -24h39q9 0 15 -6t6 -15v-119q0 -20 -21 -20h-70q-127 0 -183 62t-56 196z" />
<glyph unicode="m" horiz-adv-x="1730" d="M168 20v941q0 20 20 20h131q21 0 21 -20v-91h2q37 60 108 97t166 37q99 0 172 -40t115 -114h2q111 154 318 154q167 0 258.5 -99.5t91.5 -269.5v-615q0 -20 -21 -20h-131q-20 0 -20 20v574q0 120 -55 185t-164 65q-99 0 -162.5 -66t-63.5 -174v-584q0 -20 -20 -20h-131 q-21 0 -21 20v574q0 120 -55 185t-164 65q-100 0 -162.5 -66t-62.5 -174v-584q0 -20 -21 -20h-131q-20 0 -20 20z" />
<glyph unicode="n" horiz-adv-x="1114" d="M168 20v941q0 20 20 20h131q21 0 21 -20v-91h2q37 60 108 97t166 37q158 0 249 -100t91 -269v-615q0 -20 -20 -20h-131q-21 0 -21 20v574q0 120 -55 185t-164 65q-100 0 -162.5 -66t-62.5 -174v-584q0 -20 -21 -20h-131q-20 0 -20 20z" />
<glyph unicode="o" horiz-adv-x="1056" d="M109 492q0 152 32 247q40 126 142 195.5t245 69.5t245 -69.5t142 -195.5q33 -98 33 -247q0 -152 -33 -250q-40 -125 -142.5 -195t-244.5 -70t-244.5 70t-142.5 195q-32 95 -32 250zM285 492q0 -128 22 -201q25 -74 82 -114t139 -40t139.5 40t82.5 114q22 73 22 201 q0 125 -22 198q-25 74 -82.5 114t-139.5 40t-139 -40t-82 -114q-22 -73 -22 -198z" />
<glyph unicode="p" horiz-adv-x="1101" d="M168 -348v1309q0 20 20 20h131q21 0 21 -20v-93h2q82 136 279 136q128 0 214 -60t123 -176q35 -101 35 -276q0 -178 -35 -279q-37 -116 -123 -176t-214 -60q-196 0 -279 138h-2v-463q0 -9 -6 -15t-15 -6h-131q-20 0 -20 21zM340 492q0 -140 22 -205q51 -150 218 -150 q163 0 215 150q22 70 22 205q0 131 -22 204q-51 148 -215 148q-168 0 -218 -148q-22 -67 -22 -204z" />
<glyph unicode="q" horiz-adv-x="1101" d="M109 492q0 178 34 276q37 116 123.5 176t214.5 60q197 0 279 -136h2v93q0 20 20 20h131q21 0 21 -20v-1309q0 -9 -6 -15t-15 -6h-131q-20 0 -20 21v463h-2q-83 -138 -279 -138q-128 0 -214.5 60t-123.5 176q-34 98 -34 279zM285 492q0 -135 22 -205q52 -150 215 -150 q166 0 217 150q23 68 23 205q0 134 -23 204q-50 148 -217 148q-164 0 -215 -148q-22 -73 -22 -204z" />
<glyph unicode="r" horiz-adv-x="839" d="M168 20v941q0 20 20 20h131q21 0 21 -20v-101h2q34 66 100 105t160 39q120 0 201 -74q15 -15 4 -29l-76 -100q-13 -17 -29 -4q-73 47 -151 47q-108 0 -159.5 -76.5t-51.5 -210.5v-537q0 -20 -21 -20h-131q-20 0 -20 20z" />
<glyph unicode="s" horiz-adv-x="1003" d="M100 125q-14 15 0 29l84 90q14 14 29 0q59 -50 138.5 -81.5t164.5 -31.5q104 0 159.5 41t55.5 109q0 62 -40 94t-150 43l-105 10q-144 15 -218.5 86t-74.5 191q0 140 96 219.5t269 79.5q201 0 348 -109q16 -9 4 -29l-69 -88q-12 -14 -29 -4q-52 34 -123 57t-141 23 q-90 0 -138.5 -36.5t-48.5 -98.5q0 -60 43.5 -91.5t149.5 -41.5l102 -11q147 -13 221 -84.5t74 -191.5q0 -148 -103 -235t-292 -87q-237 0 -406 148z" />
<glyph unicode="t" horiz-adv-x="647" d="M74 862v99q0 20 20 20h82q12 0 12 12v277q0 20 21 20h131q20 0 20 -20v-277q0 -12 13 -12h155q21 0 21 -20v-99q0 -20 -21 -20h-155q-13 0 -13 -13v-555q0 -71 28.5 -97.5t96.5 -26.5h43q9 0 15 -6t6 -15v-119q0 -20 -21 -20h-75q-141 0 -203 66t-62 212v561q0 13 -12 13 h-82q-20 0 -20 20z" />
<glyph unicode="u" horiz-adv-x="1103" d="M154 348v613q0 20 20 20h131q21 0 21 -20v-572q0 -122 55 -187t162 -65q100 0 160.5 66t60.5 176v582q0 20 20 20h131q21 0 21 -20v-941q0 -20 -21 -20h-131q-20 0 -20 20v93h-2q-85 -136 -268 -136q-159 0 -249.5 101t-90.5 270z" />
<glyph unicode="v" horiz-adv-x="976" d="M53 961q-3 9 1.5 14.5t15.5 5.5h141q18 0 27 -20l254 -705h4l247 705q6 20 25 20h139q11 0 15.5 -5.5t1.5 -14.5l-351 -941q-7 -20 -26 -20h-117q-17 0 -24 20z" />
<glyph unicode="w" horiz-adv-x="1525" d="M63 961q-3 9 1.5 14.5t13.5 5.5h139q19 0 27 -20l217 -709h4l221 709q6 20 25 20h106q21 0 27 -20l223 -709h4l211 709q5 20 27 20h139q9 0 13 -5.5t1 -14.5l-309 -941q-7 -20 -25 -20h-116q-18 0 -25 20l-221 703h-4l-223 -703q-7 -20 -25 -20h-119q-17 0 -24 20z" />
<glyph unicode="x" horiz-adv-x="983" d="M60 6q-4 6 1 14l334 492l-305 449q-5 7 -1 13.5t15 6.5h148q22 0 31 -18l206 -306h3l210 306q10 18 29 18h148q11 0 15 -6.5t-1 -13.5l-307 -449l336 -492q5 -8 1 -14t-16 -6h-147q-18 0 -31 18l-237 347h-3l-237 -347q-10 -18 -31 -18h-145q-12 0 -16 6z" />
<glyph unicode="y" horiz-adv-x="976" d="M51 961q-3 9 1.5 14.5t15.5 5.5h143q19 0 25 -20l258 -709h4l247 709q6 20 25 20h139q9 0 14.5 -5.5t2.5 -14.5l-387 -1037q-63 -170 -130 -231.5t-180 -61.5h-53q-20 0 -20 21v119q0 20 20 20h37q61 0 97.5 32t68.5 116l33 90z" />
<glyph unicode="z" horiz-adv-x="976" d="M113 20v109q0 15 8 23l538 669v4h-499q-9 0 -15 6t-6 15v115q0 20 21 20h684q20 0 20 -20v-115q0 -12 -8 -23l-534 -663v-4h522q20 0 20 -21v-115q0 -20 -20 -20h-711q-20 0 -20 20z" />
<glyph unicode="{" horiz-adv-x="681" d="M125 618v117q0 21 20 21q64 2 95.5 40.5t31.5 123.5v364q0 232 220 232h94q20 0 20 -21v-98q0 -21 -20 -21h-60q-47 0 -69.5 -23.5t-22.5 -76.5v-354q0 -113 -29 -166t-98 -78v-2q69 -25 98 -78t29 -166v-364q0 -53 22.5 -77t69.5 -24h60q20 0 20 -20v-99q0 -20 -20 -20 h-94q-220 0 -220 231v373q0 86 -31.5 125t-95.5 41q-20 0 -20 20z" />
<glyph unicode="|" horiz-adv-x="593" d="M223 -152v1647q0 9 6 15t15 6h106q9 0 15 -6t6 -15v-1647q0 -20 -21 -20h-106q-21 0 -21 20z" />
<glyph unicode="}" horiz-adv-x="681" d="M76 -53q0 20 20 20h60q47 0 69.5 24t22.5 77v364q0 113 29 166t98 78v2q-69 25 -98 78t-29 166v354q0 53 -22.5 76.5t-69.5 23.5h-60q-20 0 -20 21v98q0 21 20 21h94q220 0 220 -232v-364q0 -85 31.5 -123.5t95.5 -40.5q20 0 20 -21v-117q0 -20 -20 -20q-64 -2 -95.5 -41 t-31.5 -125v-373q0 -231 -220 -231h-94q-20 0 -20 20v99z" />
<glyph unicode="~" d="M111 520q40 86 112 135.5t158 49.5q92 0 205 -76q91 -60 145 -60q50 0 85 27t69 84q10 16 28 4l78 -45q16 -11 8 -29q-40 -86 -112 -135t-158 -49q-92 0 -205 76q-89 59 -145 59q-50 0 -85 -26.5t-69 -83.5q-10 -17 -28 -5l-78 46q-16 10 -8 28z" />
<glyph unicode="&#xa1;" horiz-adv-x="589" d="M197 784v177q0 20 20 20h156q20 0 20 -20v-177q0 -20 -20 -20h-156q-20 0 -20 20zM199 -391l32 975q0 20 21 20h86q20 0 20 -20l33 -975q0 -21 -20 -21h-152q-20 0 -20 21z" />
<glyph unicode="&#xa2;" d="M176 492q0 145 31 247q36 115 124.5 181.5t215.5 78.5v168q0 21 20 21h54q20 0 20 -21v-166q199 -12 305 -163q10 -16 -6 -29l-90 -74q-17 -13 -29 2q-41 49 -81.5 74t-98.5 31v-703q59 6 99.5 30.5t80.5 74.5q12 15 29 2l90 -74q16 -13 6 -29q-106 -151 -305 -163v-164 q0 -21 -20 -21h-54q-20 0 -20 21v166q-127 12 -215.5 78.5t-124.5 181.5q-31 102 -31 250zM352 492q0 -128 23 -201q40 -129 172 -150v699q-131 -21 -172 -150q-23 -73 -23 -198z" />
<glyph unicode="&#xa3;" d="M154 604v96q0 21 20 21h98q13 0 13 12v311q0 176 90 273.5t246 97.5q127 0 210.5 -69t110.5 -185q3 -18 -18 -22l-125 -33q-20 -3 -23 16q-14 61 -54 97t-101 36q-75 0 -117.5 -47.5t-42.5 -136.5v-338q0 -12 12 -12h260q9 0 15 -6t6 -15v-96q0 -20 -21 -20h-260 q-12 0 -12 -13v-188q0 -145 -58 -221v-2h525q20 0 20 -21v-119q0 -20 -20 -20h-707q-20 0 -20 20v115q0 15 10 25q42 42 58 80t16 116v215q0 13 -13 13h-98q-20 0 -20 20z" />
<glyph unicode="&#xa4;" horiz-adv-x="1101" d="M90 283q-12 16 0 28l123 123q-66 97 -66 228q0 130 66 227l-123 125q-14 14 0 28l76 80q14 14 29 0l124 -127q107 70 230 70q122 0 229 -70l125 127q16 16 29 0l78 -80q14 -14 0 -28l-125 -125q65 -100 65 -227q0 -126 -65 -226l125 -125q16 -16 0 -28l-76 -82 q-16 -13 -29 0l-127 125q-100 -68 -229 -68q-132 0 -230 70l-124 -125q-13 -13 -29 0zM293 662q0 -111 73 -186t183 -75q112 0 185 75t73 186t-73 185.5t-185 74.5q-110 0 -183 -74.5t-73 -185.5z" />
<glyph unicode="&#xa5;" d="M102 1370q-5 9 0 16t15 7h139q23 0 29 -21l272 -610h6l264 610q9 21 29 21h137q10 0 15 -7t0 -16l-318 -680v-4h221q21 0 21 -20v-86q0 -9 -6 -15t-15 -6h-258q-12 0 -12 -12v-105q0 -12 12 -12h258q21 0 21 -20v-86q0 -9 -6 -15t-15 -6h-258q-12 0 -12 -12v-271 q0 -20 -20 -20h-132q-20 0 -20 20v271q0 12 -12 12h-258q-9 0 -15 6t-6 15v86q0 20 21 20h258q12 0 12 12v105q0 12 -12 12h-258q-9 0 -15 6t-6 15v86q0 20 21 20h221v4z" />
<glyph unicode="&#xa6;" horiz-adv-x="593" d="M223 -152v689q0 20 21 20h106q21 0 21 -20v-689q0 -20 -21 -20h-106q-21 0 -21 20zM223 815v680q0 9 6 15t15 6h106q9 0 15 -6t6 -15v-680q0 -20 -21 -20h-106q-21 0 -21 20z" />
<glyph unicode="&#xa7;" horiz-adv-x="1138" d="M190 516q0 117 53.5 205t151.5 123v2q-84 44 -120.5 106.5t-36.5 157.5q0 129 94.5 217t240.5 88q157 0 244 -81t90 -195q0 -20 -14 -23l-117 -24q-9 -3 -15.5 1.5t-6.5 12.5q-5 75 -50 119.5t-126 44.5q-82 0 -130.5 -42.5t-48.5 -117.5q0 -88 56.5 -137.5t197.5 -83.5 q295 -69 295 -373q0 -116 -55 -204t-148 -122v-2q84 -39 125 -104t41 -168q0 -135 -98 -221t-250 -86q-160 0 -248.5 77.5t-97.5 209.5q-4 19 14 22l119 27q19 3 23 -15q3 -87 52 -131.5t136 -44.5q89 0 139 44.5t50 125.5q0 87 -60 138t-205 81q-295 65 -295 373zM352 516 q0 -108 59 -167.5t158 -59.5t158 59.5t59 167.5t-59 167.5t-158 59.5t-158 -59.5t-59 -167.5z" />
<glyph unicode="&#xa8;" horiz-adv-x="862" d="M150 1223v149q0 21 20 21h121q20 0 20 -21v-149q0 -21 -20 -21h-121q-20 0 -20 21zM553 1223v149q0 21 20 21h121q9 0 15 -6t6 -15v-149q0 -9 -6 -15t-15 -6h-121q-20 0 -20 21z" />
<glyph unicode="&#xa9;" horiz-adv-x="1695" d="M129 696q0 200 94.5 365t259.5 259.5t365 94.5t365 -94.5t259.5 -259.5t94.5 -365t-94.5 -365t-259.5 -259.5t-365 -94.5t-365 94.5t-259.5 259.5t-94.5 365zM258 696q0 -168 77 -304t212 -213t301 -77t301 77t212 213t77 304t-77 304t-212 213t-301 77t-301 -77 t-212 -213t-77 -304zM530 696q0 110 23 189q33 105 114.5 160t198.5 55q88 0 157 -35t110 -94q12 -15 -5 -29l-65 -59q-14 -11 -29 4q-64 86 -166 86q-140 0 -184 -127q-14 -43 -14 -150q0 -106 14 -149q44 -127 184 -127q102 0 166 86q15 15 29 4l65 -59q17 -14 5 -29 q-41 -59 -110 -94t-157 -35q-117 0 -198.5 55t-114.5 160q-23 79 -23 188z" />
<glyph unicode="&#xaa;" horiz-adv-x="702" d="M80 969q0 190 254 190h123q12 0 12 12v29q0 46 -31 66t-108 20q-83 0 -144 -35q-17 -10 -28 4l-39 72q-12 16 4 29q82 53 223 53q143 0 201.5 -48.5t58.5 -158.5v-379q0 -20 -20 -20h-94q-21 0 -21 20v35h-2q-52 -65 -180 -65q-91 0 -150 45.5t-59 130.5zM217 979 q0 -74 109 -74q68 0 105.5 24.5t37.5 69.5v45q0 13 -12 13h-113q-127 0 -127 -78z" />
<glyph unicode="&#xab;" horiz-adv-x="1095" d="M104 526q-14 14 0 29l388 393q6 6 13 3.5t7 -11.5v-149q0 -20 -18 -41l-203 -201q-9 -9 0 -17l203 -200q18 -21 18 -41v-150q0 -9 -7 -11.5t-13 3.5zM539 540.5q0 8.5 6 14.5l387 393q6 6 13 3.5t7 -11.5v-149q0 -20 -18 -41l-203 -201q-9 -9 0 -17l203 -200 q18 -21 18 -41v-150q0 -9 -7 -11.5t-13 3.5l-387 393q-6 6 -6 14.5z" />
<glyph unicode="&#xac;" d="M125 510v111q0 20 20 20h820q20 0 20 -20v-390q0 -20 -20 -20h-115q-21 0 -21 20v246q0 12 -12 12h-672q-20 0 -20 21z" />
<glyph unicode="&#xad;" horiz-adv-x="778" d="M96 485v119q0 9 6 15t15 6h545q20 0 20 -21v-119q0 -20 -20 -20h-545q-21 0 -21 20z" />
<glyph unicode="&#xae;" horiz-adv-x="925" d="M72 1010q0 166 112.5 278.5t278.5 112.5q167 0 279 -112.5t112 -278.5q0 -168 -112 -281t-279 -113q-166 0 -278.5 113.5t-112.5 280.5zM141 1010q0 -140 92 -233t230 -93t229.5 93t91.5 233q0 139 -91.5 231t-229.5 92t-230 -92t-92 -231zM311 809v405q0 15 15 15h163 q71 0 110.5 -34t39.5 -95q0 -44 -23 -75.5t-63 -45.5l88 -170q7 -14 -8 -14h-58q-12 0 -18 14l-82 160h-78q-8 0 -8 -8v-152q0 -14 -14 -14h-49q-15 0 -15 14zM389 1047q0 -9 8 -9h92q72 0 72 62q0 59 -72 59h-92q-8 0 -8 -8v-104z" />
<glyph unicode="&#xaf;" horiz-adv-x="862" d="M150 1251v92q0 21 20 21h522q9 0 15 -6t6 -15v-92q0 -20 -21 -20h-522q-20 0 -20 20z" />
<glyph unicode="&#xb0;" horiz-adv-x="933" d="M168 1112q0 128 85 213.5t214 85.5t214 -85.5t85 -213.5t-85 -213.5t-214 -85.5t-214 85.5t-85 213.5zM281 1112q0 -84 52.5 -138t133.5 -54t133.5 54t52.5 138t-52.5 138.5t-133.5 54.5t-133.5 -54.5t-52.5 -138.5z" />
<glyph unicode="&#xb1;" d="M125 20v111q0 21 20 21h820q20 0 20 -21v-111q0 -20 -20 -20h-820q-20 0 -20 20zM125 651v111q0 20 20 20h320q12 0 12 13v323q0 9 6 15t15 6h114q9 0 15 -6t6 -15v-323q0 -13 12 -13h320q20 0 20 -20v-111q0 -20 -20 -20h-320q-12 0 -12 -13v-323q0 -9 -6 -15t-15 -6 h-114q-9 0 -15 6t-6 15v323q0 13 -12 13h-320q-20 0 -20 20z" />
<glyph unicode="&#xb2;" horiz-adv-x="698" d="M86 901v84q0 18 14 29l306 346q63 66 63 131q0 50 -31.5 80.5t-85.5 30.5q-104 0 -125 -103q-3 -19 -22 -16l-92 20q-20 3 -17 23q10 77 78 138.5t180 61.5q115 0 183.5 -67t68.5 -168q0 -58 -22 -105.5t-68 -99.5l-250 -276v-4h324q20 0 20 -21v-84q0 -20 -20 -20h-484 q-20 0 -20 20z" />
<glyph unicode="&#xb3;" horiz-adv-x="698" d="M80 1044q-7 22 12 25l92 25q16 3 25 -15q43 -88 139 -88q60 0 96.5 35.5t36.5 91.5q0 58 -38 92.5t-103 34.5h-39q-20 0 -20 21v84q0 20 20 20h31q59 0 94 31.5t35 85.5t-32 84.5t-89 30.5q-88 0 -123 -76q-6 -18 -24 -15l-87 21q-18 3 -14 24q16 73 82 121.5t170 48.5 q118 0 187 -63t69 -166q0 -111 -94 -176v-2q42 -17 77 -71.5t35 -127.5q0 -116 -72.5 -185t-193.5 -69q-107 0 -179 45.5t-93 132.5z" />
<glyph unicode="&#xb4;" horiz-adv-x="862" d="M263.5 1146.5q-3.5 5.5 0.5 14.5l156 252q12 21 35 21h135q9 0 12.5 -7t-2.5 -14l-188 -252q-15 -20 -39 -20h-97q-9 0 -12.5 5.5z" />
<glyph unicode="&#xb5;" horiz-adv-x="1118" d="M168 -348v1309q0 20 20 20h131q21 0 21 -20v-582q0 -115 55.5 -178.5t161.5 -63.5q100 0 160.5 65t60.5 177v582q0 20 21 20h131q20 0 20 -20v-941q0 -20 -20 -20h-131q-21 0 -21 20v93h-2q-30 -61 -95 -98.5t-151 -37.5q-126 0 -186 76h-4v-401q0 -9 -6 -15t-15 -6h-131 q-20 0 -20 21z" />
<glyph unicode="&#xb6;" horiz-adv-x="1234" d="M154 965q0 186 121 307t335 121h424q9 0 15 -6t6 -15v-1720q0 -9 -6 -15t-15 -6h-110q-9 0 -15 6t-6 15v1577q0 12 -12 12h-172q-12 0 -12 -12v-1577q0 -9 -6 -15t-15 -6h-111q-20 0 -20 21v885q-182 10 -291.5 130t-109.5 298z" />
<glyph unicode="&#xb7;" horiz-adv-x="483" d="M143 455v176q0 20 21 20h155q21 0 21 -20v-176q0 -9 -6 -15t-15 -6h-155q-9 0 -15 6t-6 15z" />
<glyph unicode="&#xb8;" horiz-adv-x="862" d="M307 -291l117 291q9 20 27 20h96q9 0 13 -5.5t1 -14.5l-94 -291q-6 -20 -33 -20h-112q-9 0 -13.5 5.5t-1.5 14.5z" />
<glyph unicode="&#xb9;" horiz-adv-x="698" d="M174 1468v109q0 20 16 31l134 90q17 14 32 14h95q20 0 20 -20v-791q0 -20 -20 -20h-97q-20 0 -20 20v645h-4l-135 -90q-7 -5 -14 -1t-7 13z" />
<glyph unicode="&#xba;" horiz-adv-x="718" d="M78 1098q0 84 18 139q54 172 262 172t265 -172q18 -56 18 -139q0 -84 -18 -140q-57 -172 -265 -172t-262 172q-18 56 -18 140zM223 1098q0 -56 13 -97q30 -86 122 -86q95 0 125 86q13 41 13 97q0 55 -13 96q-30 86 -125 86q-92 0 -122 -86q-13 -41 -13 -96z" />
<glyph unicode="&#xbb;" horiz-adv-x="1095" d="M143 141v150q0 19 19 41l203 200q9 8 0 17l-203 201q-19 22 -19 41v149q0 9 7.5 11.5t13.5 -3.5l387 -393q6 -6 6 -14.5t-6 -14.5l-387 -393q-6 -6 -13.5 -3.5t-7.5 11.5zM584 141v150q0 20 18 41l203 200q9 8 0 17l-203 201q-18 21 -18 41v149q0 9 7 11.5t13 -3.5 l387 -393q6 -6 6 -14.5t-6 -14.5l-387 -393q-6 -6 -13 -3.5t-7 11.5z" />
<glyph unicode="&#xbc;" horiz-adv-x="1710" d="M193 1149v108q0 20 16 31l133 90q18 15 33 15h94q20 0 20 -21v-790q0 -21 -20 -21h-96q-9 0 -15 6t-6 15v645h-4l-135 -90q-7 -5 -13.5 -1t-6.5 13zM354.5 -16.5q-3.5 6.5 1.5 14.5l807 1397q11 20 31 20h96q9 0 13 -6.5t0 -13.5l-809 -1397q-12 -21 -31 -21h-96 q-9 0 -12.5 6.5zM934 158v82q0 16 8 32l262 539q10 20 29 20h106q9 0 13 -5.5t0 -14.5l-262 -547v-2h196q12 0 12 12v183q0 20 21 20h92q21 0 21 -20v-183q0 -12 12 -12h53q21 0 21 -20v-84q0 -9 -6 -15t-15 -6h-53q-12 0 -12 -12v-105q0 -20 -21 -20h-92q-21 0 -21 20v105 q0 12 -12 12h-332q-20 0 -20 21z" />
<glyph unicode="&#xbd;" horiz-adv-x="1781" d="M193 1149v108q0 20 16 31l133 90q18 15 33 15h94q20 0 20 -21v-790q0 -21 -20 -21h-96q-9 0 -15 6t-6 15v645h-4l-135 -90q-7 -5 -13.5 -1t-6.5 13zM354.5 -16.5q-3.5 6.5 1.5 14.5l807 1397q11 20 31 20h96q9 0 13 -6.5t0 -13.5l-809 -1397q-12 -21 -31 -21h-96 q-9 0 -12.5 6.5zM1065 20v84q0 18 14 29l305 346q64 67 64 131q0 50 -31.5 80.5t-85.5 30.5q-104 0 -125 -103q-3 -19 -22 -16l-92 21q-20 3 -17 22q10 77 78 139t180 62q115 0 183.5 -67.5t68.5 -168.5q0 -58 -22 -105t-68 -99l-250 -277v-4h324q20 0 20 -21v-84 q0 -20 -20 -20h-484q-20 0 -20 20z" />
<glyph unicode="&#xbe;" horiz-adv-x="1855" d="M195 725q-7 22 12 25l92 24q17 3 25 -14q43 -88 139 -88q60 0 96.5 35.5t36.5 91.5q0 58 -38 92.5t-103 34.5h-39q-21 0 -21 20v84q0 9 6 15t15 6h30q59 0 94 31t35 85t-31.5 84.5t-88.5 30.5q-88 0 -123 -76q-6 -17 -25 -14l-86 20q-18 3 -14 25q16 73 82 121.5 t170 48.5q118 0 187 -63t69 -166q0 -112 -94 -177v-2q42 -17 77 -71t35 -127q0 -116 -72.5 -185t-193.5 -69q-107 0 -179 45.5t-93 132.5zM502 -16.5q-3 6.5 2 14.5l807 1397q11 20 30 20h97q9 0 12.5 -6.5t-0.5 -13.5l-809 -1397q-12 -21 -31 -21h-96q-9 0 -12 6.5z M1079 158v82q0 16 8 32l263 539q10 20 28 20h107q9 0 12.5 -5.5t-0.5 -14.5l-262 -547v-2h197q12 0 12 12v183q0 20 20 20h92q21 0 21 -20v-183q0 -12 12 -12h53q21 0 21 -20v-84q0 -9 -6 -15t-15 -6h-53q-12 0 -12 -12v-105q0 -20 -21 -20h-92q-20 0 -20 20v105 q0 12 -12 12h-332q-9 0 -15 6t-6 15z" />
<glyph unicode="&#xbf;" horiz-adv-x="933" d="M94 -86q0 70 25 130t80 136l137 189q32 43 42.5 72.5t10.5 80.5v66q0 20 21 20h135q20 0 20 -20v-84q0 -59 -13.5 -99t-47.5 -86l-137 -188q-56 -76 -76.5 -120t-20.5 -95q0 -87 55 -138.5t144 -51.5q86 0 140 50t73 144q3 20 23 17l129 -23q19 -3 16 -23 q-24 -150 -125.5 -237.5t-259.5 -87.5q-165 0 -268 97.5t-103 250.5zM379 784v177q0 20 20 20h156q20 0 20 -20v-177q0 -20 -20 -20h-156q-20 0 -20 20z" />
<glyph unicode="&#xc0;" horiz-adv-x="1243" d="M49 20l483 1352q7 21 25 21h133q20 0 27 -21l477 -1352q3 -9 -1 -14.5t-13 -5.5h-144q-20 0 -26 20l-107 304h-563l-107 -304q-9 -20 -26 -20h-144q-9 0 -13 5.5t-1 14.5zM307 1812.5q3 6.5 12 6.5h144q21 0 39 -21l174 -217q7 -7 4 -13.5t-12 -6.5h-101q-21 0 -37 18 l-219 219q-7 8 -4 14.5zM399 492h445l-219 632h-4z" />
<glyph unicode="&#xc1;" horiz-adv-x="1243" d="M49 20l483 1352q7 21 25 21h133q20 0 27 -21l477 -1352q3 -9 -1 -14.5t-13 -5.5h-144q-20 0 -26 20l-107 304h-563l-107 -304q-9 -20 -26 -20h-144q-9 0 -13 5.5t-1 14.5zM399 492h445l-219 632h-4zM563.5 1567.5q-2.5 6.5 3.5 13.5l176 217q17 21 37 21h144 q9 0 12.5 -6.5t-2.5 -14.5l-219 -219q-16 -18 -37 -18h-103q-9 0 -11.5 6.5z" />
<glyph unicode="&#xc2;" horiz-adv-x="1243" d="M49 20l483 1352q7 21 25 21h133q20 0 27 -21l477 -1352q3 -9 -1 -14.5t-13 -5.5h-144q-20 0 -26 20l-107 304h-563l-107 -304q-9 -20 -26 -20h-144q-9 0 -13 5.5t-1 14.5zM344.5 1551q-2.5 7 3.5 14l195 252q14 20 32 20h89q18 0 32 -20l195 -252q6 -7 3.5 -14t-11.5 -7 h-92q-21 0 -39 21l-129 143h-5l-131 -143q-18 -21 -38 -21h-93q-9 0 -11.5 7zM399 492h445l-219 632h-4z" />
<glyph unicode="&#xc3;" horiz-adv-x="1243" d="M49 20l483 1352q7 21 25 21h133q20 0 27 -21l477 -1352q3 -9 -1 -14.5t-13 -5.5h-144q-20 0 -26 20l-107 304h-563l-107 -304q-9 -20 -26 -20h-144q-9 0 -13 5.5t-1 14.5zM350 1589v99q0 18 15 36q63 66 139 66q56 0 129 -41q60 -37 108 -37q36 0 65.5 16.5t63.5 49.5 q6 6 11.5 4t5.5 -10v-99q0 -20 -15 -35q-64 -67 -139 -67q-55 0 -129 43q-68 37 -108 37q-36 0 -64 -16.5t-65 -49.5q-6 -6 -11.5 -4t-5.5 8zM399 492h445l-219 632h-4z" />
<glyph unicode="&#xc4;" horiz-adv-x="1243" d="M49 20l483 1352q7 21 25 21h133q20 0 27 -21l477 -1352q3 -9 -1 -14.5t-13 -5.5h-144q-20 0 -26 20l-107 304h-563l-107 -304q-9 -20 -26 -20h-144q-9 0 -13 5.5t-1 14.5zM336 1612v147q0 21 20 21h115q9 0 15 -6t6 -15v-147q0 -9 -6 -15t-15 -6h-115q-20 0 -20 21z M399 492h445l-219 632h-4zM745 1612v147q0 9 6 15t15 6h115q20 0 20 -21v-147q0 -21 -20 -21h-115q-9 0 -15 6t-6 15z" />
<glyph unicode="&#xc5;" horiz-adv-x="1243" d="M49 20l483 1352q7 21 25 21h133q20 0 27 -21l477 -1352q3 -9 -1 -14.5t-13 -5.5h-144q-20 0 -26 20l-107 304h-563l-107 -304q-9 -20 -26 -20h-144q-9 0 -13 5.5t-1 14.5zM399 492h445l-219 632h-4zM426 1686q0 83 56.5 137.5t138.5 54.5t138 -54.5t56 -137.5t-56 -138 t-138 -55t-138.5 55t-56.5 138zM516 1686q0 -46 30.5 -77.5t74.5 -31.5t74 31.5t30 77.5t-30 77t-74 31t-74.5 -31t-30.5 -77z" />
<glyph unicode="&#xc6;" horiz-adv-x="1910" d="M50.5 5.5q-3.5 5.5 0.5 14.5l756 1354q9 19 29 19h950q20 0 20 -21v-129q0 -20 -20 -20h-662q-12 0 -12 -13v-409q0 -13 12 -13h564q20 0 20 -20v-129q0 -21 -20 -21h-564q-12 0 -12 -12v-424q0 -12 12 -12h662q20 0 20 -20v-130q0 -20 -20 -20h-836q-20 0 -20 20v291 q0 13 -12 13h-494l-168 -304q-11 -20 -29 -20h-164q-9 0 -12.5 5.5zM518 492h400q12 0 12 12v717h-4z" />
<glyph unicode="&#xc7;" horiz-adv-x="1159" d="M123 696q0 168 8 248.5t29 142.5q52 162 171 245t292 83q155 0 270.5 -73t175.5 -207q7 -18 -8 -27l-123 -59q-9 -4 -17.5 -1t-11.5 11q-94 186 -286 186q-219 0 -289 -205q-15 -46 -21 -117.5t-6 -226.5q0 -259 27 -344q70 -205 289 -205q192 0 286 187q3 8 11.5 11 t17.5 -1l123 -59q15 -9 8 -27q-53 -118 -152 -190.5t-233 -87.5l-88 -271q-6 -20 -33 -20h-112q-9 0 -13.5 5.5t-1.5 14.5l109 273q-296 43 -385 323q-21 62 -29 142.5t-8 248.5z" />
<glyph unicode="&#xc8;" horiz-adv-x="1153" d="M172 20v1352q0 9 6 15t15 6h837q9 0 15 -6t6 -15v-129q0 -20 -21 -20h-663q-13 0 -13 -13v-409q0 -13 13 -13h563q20 0 20 -20v-129q0 -21 -20 -21h-563q-13 0 -13 -12v-424q0 -12 13 -12h663q21 0 21 -20v-130q0 -20 -21 -20h-837q-21 0 -21 20zM338 1812.5 q3 6.5 12 6.5h144q20 0 38 -21l175 -217q7 -7 3.5 -13.5t-12.5 -6.5h-100q-21 0 -37 18l-219 219q-7 8 -4 14.5z" />
<glyph unicode="&#xc9;" horiz-adv-x="1153" d="M172 20v1352q0 9 6 15t15 6h837q9 0 15 -6t6 -15v-129q0 -20 -21 -20h-663q-13 0 -13 -13v-409q0 -13 13 -13h563q20 0 20 -20v-129q0 -21 -20 -21h-563q-13 0 -13 -12v-424q0 -12 13 -12h663q21 0 21 -20v-130q0 -20 -21 -20h-837q-21 0 -21 20zM490.5 1567.5 q-2.5 6.5 3.5 13.5l176 217q18 21 37 21h143q9 0 12.5 -6.5t-2.5 -14.5l-219 -219q-16 -18 -37 -18h-102q-9 0 -11.5 6.5z" />
<glyph unicode="&#xca;" horiz-adv-x="1153" d="M172 20v1352q0 9 6 15t15 6h837q9 0 15 -6t6 -15v-129q0 -20 -21 -20h-663q-13 0 -13 -13v-409q0 -13 13 -13h563q20 0 20 -20v-129q0 -21 -20 -21h-563q-13 0 -13 -12v-424q0 -12 13 -12h663q21 0 21 -20v-130q0 -20 -21 -20h-837q-21 0 -21 20zM336.5 1551 q-2.5 7 3.5 14l195 252q14 20 32 20h88q19 0 33 -20l195 -252q6 -7 3 -14t-12 -7h-92q-21 0 -39 21l-129 143h-4l-131 -143q-18 -21 -39 -21h-92q-9 0 -11.5 7z" />
<glyph unicode="&#xcb;" horiz-adv-x="1153" d="M172 20v1352q0 9 6 15t15 6h837q9 0 15 -6t6 -15v-129q0 -20 -21 -20h-663q-13 0 -13 -13v-409q0 -13 13 -13h563q20 0 20 -20v-129q0 -21 -20 -21h-563q-13 0 -13 -12v-424q0 -12 13 -12h663q21 0 21 -20v-130q0 -20 -21 -20h-837q-21 0 -21 20zM322 1612v147 q0 21 20 21h115q20 0 20 -21v-147q0 -21 -20 -21h-115q-20 0 -20 21zM731 1612v147q0 9 6 15t15 6h114q9 0 15 -6t6 -15v-147q0 -9 -6 -15t-15 -6h-114q-9 0 -15 6t-6 15z" />
<glyph unicode="&#xcc;" horiz-adv-x="526" d="M-43 1812.5q3 6.5 12 6.5h144q21 0 39 -21l174 -217q7 -7 3.5 -13.5t-12.5 -6.5h-100q-21 0 -37 18l-219 219q-7 8 -4 14.5zM172 20v1352q0 9 6 15t15 6h141q20 0 20 -21v-1352q0 -20 -20 -20h-141q-21 0 -21 20z" />
<glyph unicode="&#xcd;" horiz-adv-x="526" d="M172 20v1352q0 9 6 15t15 6h141q20 0 20 -21v-1352q0 -20 -20 -20h-141q-21 0 -21 20zM205.5 1567.5q-2.5 6.5 3.5 13.5l176 217q17 21 37 21h143q9 0 12.5 -6.5t-2.5 -14.5l-219 -219q-16 -18 -37 -18h-102q-9 0 -11.5 6.5z" />
<glyph unicode="&#xce;" horiz-adv-x="526" d="M-9.5 1551q-2.5 7 3.5 14l194 252q14 20 33 20h88q19 0 33 -20l195 -252q6 -7 3 -14t-12 -7h-92q-21 0 -39 21l-129 143h-4l-131 -143q-18 -21 -39 -21h-92q-9 0 -11.5 7zM172 20v1352q0 9 6 15t15 6h141q20 0 20 -21v-1352q0 -20 -20 -20h-141q-21 0 -21 20z" />
<glyph unicode="&#xcf;" horiz-adv-x="526" d="M-18 1612v147q0 21 20 21h115q20 0 20 -21v-147q0 -21 -20 -21h-115q-20 0 -20 21zM172 20v1352q0 9 6 15t15 6h141q20 0 20 -21v-1352q0 -20 -20 -20h-141q-21 0 -21 20zM391 1612v147q0 9 6 15t15 6h114q9 0 15 -6t6 -15v-147q0 -9 -6 -15t-15 -6h-114q-9 0 -15 6 t-6 15z" />
<glyph unicode="&#xd0;" horiz-adv-x="1273" d="M74 651v107q0 20 20 20h66q12 0 12 13v581q0 9 6 15t15 6h469q359 0 454 -297q20 -62 28.5 -143t8.5 -257t-8.5 -256.5t-28.5 -142.5q-95 -297 -454 -297h-469q-21 0 -21 20v598q0 13 -12 13h-66q-20 0 -20 20zM354 182q0 -12 13 -12h256q128 0 206 45t111 145 q29 82 29 336t-29 336q-33 100 -111 145.5t-206 45.5h-256q-13 0 -13 -13v-419q0 -13 13 -13h231q20 0 20 -20v-107q0 -20 -20 -20h-231q-13 0 -13 -13v-436z" />
<glyph unicode="&#xd1;" horiz-adv-x="1339" d="M172 20v1352q0 9 6 15t15 6h131q24 0 34 -21l631 -1044h8v1044q0 9 6 15t15 6h129q20 0 20 -21v-1352q0 -20 -20 -20h-131q-25 0 -35 20l-633 1041h-6v-1041q0 -20 -20 -20h-129q-21 0 -21 20zM399 1589v99q0 18 15 36q63 66 139 66q56 0 129 -41q60 -37 109 -37 q36 0 65.5 16.5t63.5 49.5q6 6 11 4t5 -10v-99q0 -21 -14 -35q-64 -67 -140 -67q-55 0 -129 43q-68 37 -108 37q-36 0 -64 -16.5t-65 -49.5q-6 -6 -11.5 -4t-5.5 8z" />
<glyph unicode="&#xd2;" horiz-adv-x="1267" d="M123 696q0 168 8 250t29 144q54 160 175.5 242.5t297.5 82.5q178 0 299.5 -82.5t175.5 -242.5q21 -62 29 -144t8 -250q0 -167 -8 -249t-29 -144q-54 -160 -175.5 -243t-299.5 -83q-176 0 -297.5 83t-175.5 243q-21 62 -29 144t-8 249zM307 696q0 -243 31 -342 q67 -207 295 -207q230 0 297 207q31 99 31 342t-31 342q-67 207 -297 207q-228 0 -295 -207q-31 -99 -31 -342zM358.5 1812.5q3.5 6.5 12.5 6.5h143q22 0 39 -21l174 -217q7 -7 4 -13.5t-12 -6.5h-101q-20 0 -36 18l-220 219q-7 8 -3.5 14.5z" />
<glyph unicode="&#xd3;" horiz-adv-x="1267" d="M123 696q0 168 8 250t29 144q54 160 175.5 242.5t297.5 82.5q178 0 299.5 -82.5t175.5 -242.5q21 -62 29 -144t8 -250q0 -167 -8 -249t-29 -144q-54 -160 -175.5 -243t-299.5 -83q-176 0 -297.5 83t-175.5 243q-21 62 -29 144t-8 249zM307 696q0 -243 31 -342 q67 -207 295 -207q230 0 297 207q31 99 31 342t-31 342q-67 207 -297 207q-228 0 -295 -207q-31 -99 -31 -342zM535.5 1567.5q-2.5 6.5 3.5 13.5l176 217q17 21 37 21h143q9 0 12.5 -6.5t-2.5 -14.5l-219 -219q-16 -18 -37 -18h-102q-9 0 -11.5 6.5z" />
<glyph unicode="&#xd4;" horiz-adv-x="1267" d="M123 696q0 168 8 250t29 144q54 160 175.5 242.5t297.5 82.5q178 0 299.5 -82.5t175.5 -242.5q21 -62 29 -144t8 -250q0 -167 -8 -249t-29 -144q-54 -160 -175.5 -243t-299.5 -83q-176 0 -297.5 83t-175.5 243q-21 62 -29 144t-8 249zM307 696q0 -243 31 -342 q67 -207 295 -207q230 0 297 207q31 99 31 342t-31 342q-67 207 -297 207q-228 0 -295 -207q-31 -99 -31 -342zM357 1551q-3 7 3 14l195 252q14 20 33 20h88q19 0 33 -20l194 -252q6 -7 3.5 -14t-11.5 -7h-92q-21 0 -39 21l-129 143h-4l-131 -143q-18 -21 -39 -21h-92 q-9 0 -12 7z" />
<glyph unicode="&#xd5;" horiz-adv-x="1267" d="M123 696q0 168 8 250t29 144q54 160 175.5 242.5t297.5 82.5q178 0 299.5 -82.5t175.5 -242.5q21 -62 29 -144t8 -250q0 -167 -8 -249t-29 -144q-54 -160 -175.5 -243t-299.5 -83q-176 0 -297.5 83t-175.5 243q-21 62 -29 144t-8 249zM307 696q0 -243 31 -342 q67 -207 295 -207q230 0 297 207q31 99 31 342t-31 342q-67 207 -297 207q-228 0 -295 -207q-31 -99 -31 -342zM362 1589v99q0 18 15 36q63 66 139 66q56 0 129 -41q60 -37 109 -37q36 0 65.5 16.5t63.5 49.5q6 6 11 4t5 -10v-99q0 -21 -14 -35q-64 -67 -140 -67 q-55 0 -129 43q-68 37 -108 37q-36 0 -64 -16.5t-65 -49.5q-6 -6 -11.5 -4t-5.5 8z" />
<glyph unicode="&#xd6;" horiz-adv-x="1267" d="M123 696q0 168 8 250t29 144q54 160 175.5 242.5t297.5 82.5q178 0 299.5 -82.5t175.5 -242.5q21 -62 29 -144t8 -250q0 -167 -8 -249t-29 -144q-54 -160 -175.5 -243t-299.5 -83q-176 0 -297.5 83t-175.5 243q-21 62 -29 144t-8 249zM307 696q0 -243 31 -342 q67 -207 295 -207q230 0 297 207q31 99 31 342t-31 342q-67 207 -297 207q-228 0 -295 -207q-31 -99 -31 -342zM350 1612v147q0 9 6 15t15 6h114q9 0 15 -6t6 -15v-147q0 -9 -6 -15t-15 -6h-114q-9 0 -15 6t-6 15zM760 1612v147q0 21 20 21h115q20 0 20 -21v-147 q0 -21 -20 -21h-115q-20 0 -20 21z" />
<glyph unicode="&#xd7;" d="M190 279q-14 14 0 28l250 250q8 8 0 16l-250 250q-14 15 0 29l78 80q14 14 29 0l250 -248q9 -9 18 0l250 248q15 14 29 0l76 -80q14 -14 0 -29l-250 -248q-9 -9 0 -18l250 -250q14 -14 0 -28l-76 -80q-6 -6 -14.5 -6t-14.5 6l-252 247q-8 8 -16 0l-250 -247 q-6 -6 -14.5 -6t-14.5 6z" />
<glyph unicode="&#xd8;" horiz-adv-x="1267" d="M123 696q0 168 8 250t29 144q54 160 175.5 242.5t297.5 82.5q181 0 305 -86l61 107q11 18 31 18h92q9 0 12.5 -6t-1.5 -14l-109 -187q56 -72 84 -157q21 -62 29 -144t8 -250q0 -167 -8 -249t-29 -144q-54 -160 -175.5 -243t-299.5 -83q-182 0 -303 86l-62 -106 q-11 -18 -30 -18h-93q-9 0 -13 6.5t1 13.5l109 186q-51 62 -82 158q-21 62 -29 144t-8 249zM307 696q0 -157 7.5 -235t33.5 -139l496 854q-81 69 -211 69q-228 0 -295 -207q-31 -99 -31 -342zM422 217q82 -70 211 -70q230 0 297 207q31 99 31 342q0 165 -8.5 238.5 t-34.5 134.5z" />
<glyph unicode="&#xd9;" horiz-adv-x="1308" d="M162 485v887q0 21 20 21h142q20 0 20 -21v-885q0 -165 84 -252.5t227 -87.5q142 0 226 87.5t84 252.5v885q0 21 20 21h141q9 0 15 -6t6 -15v-887q0 -244 -130.5 -376t-361.5 -132q-232 0 -362.5 132t-130.5 376zM375 1812.5q3 6.5 12 6.5h143q22 0 39 -21l174 -217 q7 -7 4 -13.5t-12 -6.5h-100q-21 0 -37 18l-219 219q-7 8 -4 14.5z" />
<glyph unicode="&#xda;" horiz-adv-x="1308" d="M162 485v887q0 21 20 21h142q20 0 20 -21v-885q0 -165 84 -252.5t227 -87.5q142 0 226 87.5t84 252.5v885q0 21 20 21h141q9 0 15 -6t6 -15v-887q0 -244 -130.5 -376t-361.5 -132q-232 0 -362.5 132t-130.5 376zM559.5 1567.5q-2.5 6.5 3.5 13.5l176 217q17 21 37 21h144 q9 0 12.5 -6.5t-2.5 -14.5l-219 -219q-16 -18 -37 -18h-103q-9 0 -11.5 6.5z" />
<glyph unicode="&#xdb;" horiz-adv-x="1308" d="M162 485v887q0 21 20 21h142q20 0 20 -21v-885q0 -165 84 -252.5t227 -87.5q142 0 226 87.5t84 252.5v885q0 21 20 21h141q9 0 15 -6t6 -15v-887q0 -244 -130.5 -376t-361.5 -132q-232 0 -362.5 132t-130.5 376zM377.5 1551q-2.5 7 3.5 14l194 252q14 20 33 20h88 q19 0 33 -20l195 -252q6 -7 3 -14t-12 -7h-92q-21 0 -39 21l-129 143h-4l-131 -143q-18 -21 -39 -21h-92q-9 0 -11.5 7z" />
<glyph unicode="&#xdc;" horiz-adv-x="1308" d="M162 485v887q0 21 20 21h142q20 0 20 -21v-885q0 -165 84 -252.5t227 -87.5q142 0 226 87.5t84 252.5v885q0 21 20 21h141q9 0 15 -6t6 -15v-887q0 -244 -130.5 -376t-361.5 -132q-232 0 -362.5 132t-130.5 376zM371 1612v147q0 21 20 21h115q20 0 20 -21v-147 q0 -21 -20 -21h-115q-20 0 -20 21zM780 1612v147q0 9 6 15t15 6h114q9 0 15 -6t6 -15v-147q0 -9 -6 -15t-15 -6h-114q-9 0 -15 6t-6 15z" />
<glyph unicode="&#xdd;" horiz-adv-x="1077" d="M37 1370q-3 9 1.5 16t14.5 7h146q18 0 30 -21l312 -596h4l309 596q9 21 29 21h141q24 0 16 -23l-411 -801v-549q0 -20 -21 -20h-139q-20 0 -20 20v549zM459.5 1567.5q-2.5 6.5 3.5 13.5l176 217q17 21 37 21h143q9 0 12.5 -6.5t-2.5 -14.5l-219 -219q-16 -18 -37 -18 h-102q-9 0 -11.5 6.5z" />
<glyph unicode="&#xde;" horiz-adv-x="1212" d="M172 20v1352q0 9 6 15t15 6h141q20 0 20 -21v-225q0 -12 13 -12h321q201 0 321.5 -113.5t120.5 -302.5t-120.5 -302.5t-321.5 -113.5h-321q-13 0 -13 -12v-271q0 -20 -20 -20h-141q-21 0 -21 20zM354 485q0 -12 13 -12h311q128 0 200 65.5t72 180.5t-72 180.5t-200 65.5 h-311q-13 0 -13 -13v-467z" />
<glyph unicode="&#xdf;" horiz-adv-x="1103" d="M168 20v988q0 200 97 303.5t310 103.5q193 0 294.5 -82.5t101.5 -236.5q0 -161 -129 -230v-4q92 -44 125 -139q22 -76 22 -266q0 -197 -24 -273q-33 -102 -116.5 -147t-223.5 -45h-45q-21 0 -21 20v119q0 9 6 15t15 6h41q76 0 119 23.5t63 80.5q12 40 12 201 q0 163 -14 209q-38 112 -199 112h-22q-9 0 -15 6t-6 15v119q0 20 21 20h41q92 0 135 37.5t43 120.5q0 78 -56.5 119.5t-162.5 41.5q-127 0 -183.5 -57t-56.5 -186v-994q0 -20 -21 -20h-131q-20 0 -20 20z" />
<glyph unicode="&#xe0;" horiz-adv-x="1062" d="M119 272q0 152 99.5 227.5t283.5 75.5h223q12 0 12 13v71q0 104 -51 148.5t-184 44.5q-141 0 -238 -70q-18 -14 -28 2l-56 95q-8 16 4 28q126 97 334 97q209 0 297 -76t88 -258v-650q0 -20 -20 -20h-121q-21 0 -21 20v86h-2q-36 -59 -109.5 -94t-180.5 -35 q-146 0 -238 75.5t-92 219.5zM285 279q0 -75 52.5 -114.5t151.5 -39.5q116 0 182 51t66 141v109q0 12 -12 12h-197q-127 0 -185 -38t-58 -121zM321.5 1427q3.5 7 12.5 7h135q25 0 37 -21l153 -252q4 -9 0.5 -14.5t-12.5 -5.5h-96q-24 0 -39 20l-188 252q-6 7 -2.5 14z" />
<glyph unicode="&#xe1;" horiz-adv-x="1062" d="M119 272q0 152 99.5 227.5t283.5 75.5h223q12 0 12 13v71q0 104 -51 148.5t-184 44.5q-141 0 -238 -70q-18 -14 -28 2l-56 95q-8 16 4 28q126 97 334 97q209 0 297 -76t88 -258v-650q0 -20 -20 -20h-121q-21 0 -21 20v86h-2q-36 -59 -109.5 -94t-180.5 -35 q-146 0 -238 75.5t-92 219.5zM285 279q0 -75 52.5 -114.5t151.5 -39.5q116 0 182 51t66 141v109q0 12 -12 12h-197q-127 0 -185 -38t-58 -121zM448.5 1146.5q-3.5 5.5 0.5 14.5l155 252q12 21 35 21h135q9 0 12.5 -7t-2.5 -14l-188 -252q-15 -20 -39 -20h-96q-9 0 -12.5 5.5 z" />
<glyph unicode="&#xe2;" horiz-adv-x="1062" d="M119 272q0 152 99.5 227.5t283.5 75.5h223q12 0 12 13v71q0 104 -51 148.5t-184 44.5q-141 0 -238 -70q-18 -14 -28 2l-56 95q-8 16 4 28q126 97 334 97q209 0 297 -76t88 -258v-650q0 -20 -20 -20h-121q-21 0 -21 20v86h-2q-36 -59 -109.5 -94t-180.5 -35 q-146 0 -238 75.5t-92 219.5zM254.5 1147.5q-2.5 6.5 3.5 13.5l195 252q15 21 32 21h88q18 0 33 -21l195 -252q6 -7 3.5 -13.5t-11.5 -6.5h-93q-20 0 -38 20l-130 144h-4l-131 -144q-17 -20 -39 -20h-92q-9 0 -11.5 6.5zM285 279q0 -75 52.5 -114.5t151.5 -39.5 q116 0 182 51t66 141v109q0 12 -12 12h-197q-127 0 -185 -38t-58 -121z" />
<glyph unicode="&#xe3;" horiz-adv-x="1062" d="M119 272q0 152 99.5 227.5t283.5 75.5h223q12 0 12 13v71q0 104 -51 148.5t-184 44.5q-141 0 -238 -70q-18 -14 -28 2l-56 95q-8 16 4 28q126 97 334 97q209 0 297 -76t88 -258v-650q0 -20 -20 -20h-121q-21 0 -21 20v86h-2q-36 -59 -109.5 -94t-180.5 -35 q-146 0 -238 75.5t-92 219.5zM260 1198v98q0 21 14 37q66 66 140 66q58 0 129 -43q68 -37 108 -37q36 0 64.5 16.5t64.5 48.5q6 6 11.5 4t5.5 -8v-98q0 -20 -15 -37q-65 -65 -139 -65q-55 0 -129 43q-68 37 -108 37q-36 0 -65 -16.5t-65 -49.5q-6 -6 -11 -4t-5 8zM285 279 q0 -75 52.5 -114.5t151.5 -39.5q116 0 182 51t66 141v109q0 12 -12 12h-197q-127 0 -185 -38t-58 -121z" />
<glyph unicode="&#xe4;" horiz-adv-x="1062" d="M119 272q0 152 99.5 227.5t283.5 75.5h223q12 0 12 13v71q0 104 -51 148.5t-184 44.5q-141 0 -238 -70q-18 -14 -28 2l-56 95q-8 16 4 28q126 97 334 97q209 0 297 -76t88 -258v-650q0 -20 -20 -20h-121q-21 0 -21 20v86h-2q-36 -59 -109.5 -94t-180.5 -35 q-146 0 -238 75.5t-92 219.5zM246 1223v149q0 21 20 21h121q9 0 15 -6t6 -15v-149q0 -9 -6 -15t-15 -6h-121q-20 0 -20 21zM285 279q0 -75 52.5 -114.5t151.5 -39.5q116 0 182 51t66 141v109q0 12 -12 12h-197q-127 0 -185 -38t-58 -121zM649 1223v149q0 9 6 15t15 6h121 q20 0 20 -21v-149q0 -21 -20 -21h-121q-9 0 -15 6t-6 15z" />
<glyph unicode="&#xe5;" horiz-adv-x="1062" d="M119 272q0 152 99.5 227.5t283.5 75.5h223q12 0 12 13v71q0 104 -51 148.5t-184 44.5q-141 0 -238 -70q-18 -14 -28 2l-56 95q-8 16 4 28q126 97 334 97q209 0 297 -76t88 -258v-650q0 -20 -20 -20h-121q-21 0 -21 20v86h-2q-36 -59 -109.5 -94t-180.5 -35 q-146 0 -238 75.5t-92 219.5zM285 279q0 -75 52.5 -114.5t151.5 -39.5q116 0 182 51t66 141v109q0 12 -12 12h-197q-127 0 -185 -38t-58 -121zM344 1288q0 83 56.5 138t138.5 55t138 -55t56 -138t-56 -137.5t-138 -54.5t-138.5 54.5t-56.5 137.5zM434 1288q0 -46 30.5 -77 t74.5 -31t74 31t30 77t-30 77.5t-74 31.5t-74.5 -31.5t-30.5 -77.5z" />
<glyph unicode="&#xe6;" horiz-adv-x="1667" d="M119 272q0 152 99.5 227.5t283.5 75.5h223q12 0 12 13v71q0 104 -51 148.5t-184 44.5q-141 0 -238 -70q-18 -14 -28 2l-56 95q-8 16 4 28q126 97 334 97q259 0 326 -132h4q47 64 123.5 98t171.5 34q142 0 243 -69.5t142 -195.5q31 -98 31 -280q0 -21 -23 -21h-621 q-12 0 -12 -12q0 -63 17 -119q59 -170 247 -170q157 0 252 109q16 16 31 4l84 -76q15 -12 2 -29q-61 -77 -160 -122.5t-223 -45.5q-231 0 -340 173h-2q-86 -173 -362 -173q-146 0 -238 75.5t-92 219.5zM285 279q0 -75 52.5 -114.5t151.5 -39.5q116 0 182 51t66 141v109 q0 12 -12 12h-197q-127 0 -185 -38t-58 -121zM903 588q0 -13 12 -13h455q12 0 12 13q0 67 -14 110q-25 74 -83.5 114t-141.5 40t-141.5 -40t-83.5 -114q-15 -47 -15 -110z" />
<glyph unicode="&#xe7;" horiz-adv-x="966" d="M109 492q0 149 30 247q41 127 143 196t244 69q219 0 336 -166q10 -16 -6 -29l-90 -74q-17 -13 -29 2q-45 56 -92.5 81.5t-118.5 25.5q-81 0 -138 -39.5t-81 -114.5q-22 -70 -22 -198q0 -131 22 -201q24 -75 81 -114.5t138 -39.5q71 0 118.5 25.5t92.5 81.5q12 15 29 2 l90 -74q16 -13 6 -29q-95 -137 -274 -161l-88 -273q-6 -20 -33 -20h-113q-9 0 -13 5.5t-1 14.5l109 275q-112 15 -193.5 82t-116.5 176q-30 98 -30 250z" />
<glyph unicode="&#xe8;" horiz-adv-x="1048" d="M109 492q0 158 30 247q41 127 142.5 196t242.5 69t242.5 -69.5t142.5 -195.5q31 -98 31 -280q0 -21 -22 -21h-621q-12 0 -12 -12q0 -66 16 -119q59 -170 248 -170q157 0 252 109q16 16 30 4l84 -76q16 -13 3 -29q-61 -77 -160 -122.5t-223 -45.5q-149 0 -251.5 69.5 t-142.5 197.5q-32 101 -32 248zM282.5 1427q3.5 7 12.5 7h135q25 0 37 -21l154 -252q4 -9 0 -14.5t-13 -5.5h-96q-24 0 -39 20l-188 252q-6 7 -2.5 14zM285 588q0 -13 12 -13h455q12 0 12 13q0 67 -14 110q-25 74 -84 114t-142 40t-141.5 -40t-83.5 -114q-14 -43 -14 -110z " />
<glyph unicode="&#xe9;" horiz-adv-x="1048" d="M109 492q0 158 30 247q41 127 142.5 196t242.5 69t242.5 -69.5t142.5 -195.5q31 -98 31 -280q0 -21 -22 -21h-621q-12 0 -12 -12q0 -66 16 -119q59 -170 248 -170q157 0 252 109q16 16 30 4l84 -76q16 -13 3 -29q-61 -77 -160 -122.5t-223 -45.5q-149 0 -251.5 69.5 t-142.5 197.5q-32 101 -32 248zM285 588q0 -13 12 -13h455q12 0 12 13q0 67 -14 110q-25 74 -84 114t-142 40t-141.5 -40t-83.5 -114q-14 -43 -14 -110zM433.5 1146.5q-3.5 5.5 0.5 14.5l156 252q12 21 35 21h135q9 0 12.5 -7t-2.5 -14l-188 -252q-15 -20 -39 -20h-97 q-9 0 -12.5 5.5z" />
<glyph unicode="&#xea;" horiz-adv-x="1048" d="M109 492q0 158 30 247q41 127 142.5 196t242.5 69t242.5 -69.5t142.5 -195.5q31 -98 31 -280q0 -21 -22 -21h-621q-12 0 -12 -12q0 -66 16 -119q59 -170 248 -170q157 0 252 109q16 16 30 4l84 -76q16 -13 3 -29q-61 -77 -160 -122.5t-223 -45.5q-149 0 -251.5 69.5 t-142.5 197.5q-32 101 -32 248zM248.5 1147.5q-2.5 6.5 3.5 13.5l194 252q15 21 33 21h88q18 0 33 -21l195 -252q6 -7 3 -13.5t-12 -6.5h-92q-22 0 -39 20l-129 144h-4l-131 -144q-17 -20 -39 -20h-92q-9 0 -11.5 6.5zM285 588q0 -13 12 -13h455q12 0 12 13q0 67 -14 110 q-25 74 -84 114t-142 40t-141.5 -40t-83.5 -114q-14 -43 -14 -110z" />
<glyph unicode="&#xeb;" horiz-adv-x="1048" d="M109 492q0 158 30 247q41 127 142.5 196t242.5 69t242.5 -69.5t142.5 -195.5q31 -98 31 -280q0 -21 -22 -21h-621q-12 0 -12 -12q0 -66 16 -119q59 -170 248 -170q157 0 252 109q16 16 30 4l84 -76q16 -13 3 -29q-61 -77 -160 -122.5t-223 -45.5q-149 0 -251.5 69.5 t-142.5 197.5q-32 101 -32 248zM240 1223v149q0 21 20 21h121q20 0 20 -21v-149q0 -21 -20 -21h-121q-20 0 -20 21zM285 588q0 -13 12 -13h455q12 0 12 13q0 67 -14 110q-25 74 -84 114t-142 40t-141.5 -40t-83.5 -114q-14 -43 -14 -110zM643 1223v149q0 9 6 15t15 6h120 q9 0 15 -6t6 -15v-149q0 -9 -6 -15t-15 -6h-120q-9 0 -15 6t-6 15z" />
<glyph unicode="&#xec;" horiz-adv-x="507" d="M-16.5 1427q3.5 7 12.5 7h135q25 0 37 -21l154 -252q4 -9 0 -14.5t-13 -5.5h-96q-24 0 -39 20l-188 252q-6 7 -2.5 14zM168 20v941q0 20 20 20h131q21 0 21 -20v-941q0 -20 -21 -20h-131q-20 0 -20 20z" />
<glyph unicode="&#xed;" horiz-adv-x="507" d="M168 20v941q0 20 20 20h131q21 0 21 -20v-941q0 -20 -21 -20h-131q-20 0 -20 20zM192.5 1146.5q-3.5 5.5 0.5 14.5l155 252q12 21 35 21h135q9 0 12.5 -7t-2.5 -14l-188 -252q-15 -20 -39 -20h-96q-9 0 -12.5 5.5z" />
<glyph unicode="&#xee;" horiz-adv-x="507" d="M-19.5 1147.5q-2.5 6.5 3.5 13.5l194 252q15 21 33 21h88q18 0 33 -21l194 -252q6 -7 3.5 -13.5t-11.5 -6.5h-92q-22 0 -39 20l-129 144h-4l-131 -144q-18 -20 -39 -20h-92q-9 0 -11.5 6.5zM168 20v941q0 20 20 20h131q21 0 21 -20v-941q0 -20 -21 -20h-131q-20 0 -20 20 z" />
<glyph unicode="&#xef;" horiz-adv-x="507" d="M-29 1223v149q0 9 6 15t15 6h121q20 0 20 -21v-149q0 -21 -20 -21h-121q-9 0 -15 6t-6 15zM168 20v941q0 20 20 20h131q21 0 21 -20v-941q0 -20 -21 -20h-131q-20 0 -20 20zM375 1223v149q0 21 20 21h121q9 0 15 -6t6 -15v-149q0 -9 -6 -15t-15 -6h-121q-20 0 -20 21z " />
<glyph unicode="&#xf0;" horiz-adv-x="1056" d="M109 469q0 133 30 231q40 120 130 187t212 67q90 0 160 -47h2l-156 205l-192 -59q-20 -7 -27 14l-24 86q-7 21 14 27l145 43l-112 149q-6 8 -2.5 14.5t12.5 6.5h148q21 0 36 -21l78 -100l191 57q20 7 26 -12l25 -88q6 -19 -14 -25l-144 -45l60 -78q126 -164 183.5 -304 t57.5 -281q0 -146 -33 -254q-41 -126 -142.5 -195.5t-244.5 -69.5t-244.5 69.5t-142.5 195.5q-32 105 -32 227zM285 469q0 -111 22 -178q54 -154 221 -154q168 0 222 154q22 67 22 178t-22 178q-27 77 -80 115.5t-142 38.5q-167 0 -221 -154q-22 -67 -22 -178z" />
<glyph unicode="&#xf1;" horiz-adv-x="1114" d="M168 20v941q0 20 20 20h131q21 0 21 -20v-91h2q37 60 108 97t166 37q158 0 249 -100t91 -269v-615q0 -20 -20 -20h-131q-21 0 -21 20v574q0 120 -55 185t-164 65q-100 0 -162.5 -66t-62.5 -174v-584q0 -20 -21 -20h-131q-20 0 -20 20zM287 1198v98q0 21 14 37 q66 66 139 66q58 0 129 -43q68 -37 109 -37q36 0 64.5 16.5t64.5 48.5q6 6 11 4t5 -8v-98q0 -21 -14 -37q-65 -65 -139 -65q-55 0 -129 43q-68 37 -109 37q-36 0 -64 -16.5t-65 -49.5q-6 -6 -11 -4t-5 8z" />
<glyph unicode="&#xf2;" horiz-adv-x="1056" d="M109 492q0 152 32 247q40 126 142 195.5t245 69.5t245 -69.5t142 -195.5q33 -98 33 -247q0 -152 -33 -250q-40 -125 -142.5 -195t-244.5 -70t-244.5 70t-142.5 195q-32 95 -32 250zM276.5 1427q3.5 7 12.5 7h135q25 0 37 -21l153 -252q4 -9 0.5 -14.5t-12.5 -5.5h-96 q-24 0 -39 20l-188 252q-6 7 -2.5 14zM285 492q0 -128 22 -201q25 -74 82 -114t139 -40t139.5 40t82.5 114q22 73 22 201q0 125 -22 198q-25 74 -82.5 114t-139.5 40t-139 -40t-82 -114q-22 -73 -22 -198z" />
<glyph unicode="&#xf3;" horiz-adv-x="1056" d="M109 492q0 152 32 247q40 126 142 195.5t245 69.5t245 -69.5t142 -195.5q33 -98 33 -247q0 -152 -33 -250q-40 -125 -142.5 -195t-244.5 -70t-244.5 70t-142.5 195q-32 95 -32 250zM285 492q0 -128 22 -201q25 -74 82 -114t139 -40t139.5 40t82.5 114q22 73 22 201 q0 125 -22 198q-25 74 -82.5 114t-139.5 40t-139 -40t-82 -114q-22 -73 -22 -198zM442 1146.5q-4 5.5 0 14.5l156 252q12 21 35 21h135q9 0 12.5 -7t-2.5 -14l-188 -252q-15 -20 -39 -20h-96q-9 0 -13 5.5z" />
<glyph unicode="&#xf4;" horiz-adv-x="1056" d="M109 492q0 152 32 247q40 126 142 195.5t245 69.5t245 -69.5t142 -195.5q33 -98 33 -247q0 -152 -33 -250q-40 -125 -142.5 -195t-244.5 -70t-244.5 70t-142.5 195q-32 95 -32 250zM252.5 1147.5q-2.5 6.5 3.5 13.5l195 252q15 21 32 21h88q18 0 33 -21l195 -252 q6 -7 3.5 -13.5t-11.5 -6.5h-93q-22 0 -39 20l-129 144h-4l-131 -144q-18 -20 -39 -20h-92q-9 0 -11.5 6.5zM285 492q0 -128 22 -201q25 -74 82 -114t139 -40t139.5 40t82.5 114q22 73 22 201q0 125 -22 198q-25 74 -82.5 114t-139.5 40t-139 -40t-82 -114q-22 -73 -22 -198 z" />
<glyph unicode="&#xf5;" horiz-adv-x="1056" d="M109 492q0 152 32 247q40 126 142 195.5t245 69.5t245 -69.5t142 -195.5q33 -98 33 -247q0 -152 -33 -250q-40 -125 -142.5 -195t-244.5 -70t-244.5 70t-142.5 195q-32 95 -32 250zM258 1198v98q0 21 14 37q66 66 140 66q58 0 129 -43q68 -37 108 -37q36 0 64.5 16.5 t64.5 48.5q6 6 11.5 4t5.5 -8v-98q0 -20 -15 -37q-65 -65 -139 -65q-55 0 -129 43q-68 37 -109 37q-36 0 -64 -16.5t-65 -49.5q-6 -6 -11 -4t-5 8zM285 492q0 -128 22 -201q25 -74 82 -114t139 -40t139.5 40t82.5 114q22 73 22 201q0 125 -22 198q-25 74 -82.5 114 t-139.5 40t-139 -40t-82 -114q-22 -73 -22 -198z" />
<glyph unicode="&#xf6;" horiz-adv-x="1056" d="M109 492q0 152 32 247q40 126 142 195.5t245 69.5t245 -69.5t142 -195.5q33 -98 33 -247q0 -152 -33 -250q-40 -125 -142.5 -195t-244.5 -70t-244.5 70t-142.5 195q-32 95 -32 250zM244 1223v149q0 21 20 21h121q9 0 15 -6t6 -15v-149q0 -9 -6 -15t-15 -6h-121 q-20 0 -20 21zM285 492q0 -128 22 -201q25 -74 82 -114t139 -40t139.5 40t82.5 114q22 73 22 201q0 125 -22 198q-25 74 -82.5 114t-139.5 40t-139 -40t-82 -114q-22 -73 -22 -198zM647 1223v149q0 9 6 15t15 6h120q9 0 15 -6t6 -15v-149q0 -9 -6 -15t-15 -6h-120 q-9 0 -15 6t-6 15z" />
<glyph unicode="&#xf7;" d="M125 510v111q0 20 20 20h820q20 0 20 -20v-111q0 -21 -20 -21h-820q-20 0 -20 21zM440 233q0 47 34 81t81 34t81 -34t34 -81t-34 -80.5t-81 -33.5t-81 33.5t-34 80.5zM440 897q0 47 34 81t81 34t81 -34t34 -81t-34 -81t-81 -34t-81 34t-34 81z" />
<glyph unicode="&#xf8;" horiz-adv-x="1056" d="M109 492q0 152 32 247q40 126 142 195.5t245 69.5q144 0 248 -72l62 90q13 20 36 20h60q9 0 12 -6t-2 -14l-100 -152q48 -57 71 -131q33 -98 33 -247q0 -152 -33 -250q-40 -125 -142.5 -195t-244.5 -70q-146 0 -247 72l-62 -90q-14 -20 -37 -20h-59q-9 0 -12 6.5t2 13.5 l100 150q-48 58 -72 133q-32 95 -32 250zM283 492q0 -81 6.5 -132.5t27.5 -101.5l363 537q-61 49 -152 49q-82 0 -140 -40t-83 -114q-22 -73 -22 -198zM375 186q61 -49 153 -49q82 0 140.5 40.5t83.5 113.5q22 73 22 201q0 141 -37 231z" />
<glyph unicode="&#xf9;" horiz-adv-x="1103" d="M154 348v613q0 20 20 20h131q21 0 21 -20v-572q0 -122 55 -187t162 -65q100 0 160.5 66t60.5 176v582q0 20 20 20h131q21 0 21 -20v-941q0 -20 -21 -20h-131q-20 0 -20 20v93h-2q-85 -136 -268 -136q-159 0 -249.5 101t-90.5 270zM302.5 1427q3.5 7 12.5 7h136 q24 0 36 -21l154 -252q4 -9 0.5 -14.5t-12.5 -5.5h-97q-23 0 -38 20l-189 252q-6 7 -2.5 14z" />
<glyph unicode="&#xfa;" horiz-adv-x="1103" d="M154 348v613q0 20 20 20h131q21 0 21 -20v-572q0 -122 55 -187t162 -65q100 0 160.5 66t60.5 176v582q0 20 20 20h131q21 0 21 -20v-941q0 -20 -21 -20h-131q-20 0 -20 20v93h-2q-85 -136 -268 -136q-159 0 -249.5 101t-90.5 270zM464.5 1146.5q-3.5 5.5 0.5 14.5 l156 252q12 21 34 21h136q9 0 12.5 -7t-2.5 -14l-189 -252q-15 -20 -39 -20h-96q-9 0 -12.5 5.5z" />
<glyph unicode="&#xfb;" horiz-adv-x="1103" d="M154 348v613q0 20 20 20h131q21 0 21 -20v-572q0 -122 55 -187t162 -65q100 0 160.5 66t60.5 176v582q0 20 20 20h131q21 0 21 -20v-941q0 -20 -21 -20h-131q-20 0 -20 20v93h-2q-85 -136 -268 -136q-159 0 -249.5 101t-90.5 270zM275.5 1147.5q-2.5 6.5 3.5 13.5 l194 252q15 21 33 21h88q18 0 33 -21l194 -252q6 -7 3.5 -13.5t-11.5 -6.5h-92q-21 0 -39 20l-129 144h-4l-131 -144q-18 -20 -39 -20h-92q-9 0 -11.5 6.5z" />
<glyph unicode="&#xfc;" horiz-adv-x="1103" d="M154 348v613q0 20 20 20h131q21 0 21 -20v-572q0 -122 55 -187t162 -65q100 0 160.5 66t60.5 176v582q0 20 20 20h131q21 0 21 -20v-941q0 -20 -21 -20h-131q-20 0 -20 20v93h-2q-85 -136 -268 -136q-159 0 -249.5 101t-90.5 270zM268 1223v149q0 9 6 15t15 6h121 q20 0 20 -21v-149q0 -21 -20 -21h-121q-9 0 -15 6t-6 15zM672 1223v149q0 21 20 21h121q9 0 15 -6t6 -15v-149q0 -9 -6 -15t-15 -6h-121q-20 0 -20 21z" />
<glyph unicode="&#xfd;" horiz-adv-x="976" d="M51 961q-3 9 1.5 14.5t15.5 5.5h143q19 0 25 -20l258 -709h4l247 709q6 20 25 20h139q9 0 14.5 -5.5t2.5 -14.5l-387 -1037q-63 -170 -130 -231.5t-180 -61.5h-53q-20 0 -20 21v119q0 20 20 20h37q61 0 97.5 32t68.5 116l33 90zM411.5 1146.5q-3.5 5.5 0.5 14.5l155 252 q12 21 35 21h135q9 0 13 -7t-2 -14l-189 -252q-15 -20 -39 -20h-96q-9 0 -12.5 5.5z" />
<glyph unicode="&#xfe;" horiz-adv-x="1101" d="M168 -348v1720q0 21 20 21h131q9 0 15 -6t6 -15v-504h2q82 136 279 136q128 0 214 -60t123 -176q35 -101 35 -276q0 -178 -35 -279q-37 -116 -123 -176t-214 -60q-196 0 -279 138h-2v-463q0 -9 -6 -15t-15 -6h-131q-20 0 -20 21zM340 492q0 -140 22 -205 q51 -150 218 -150q163 0 215 150q22 70 22 205q0 131 -22 204q-51 148 -215 148q-168 0 -218 -148q-22 -67 -22 -204z" />
<glyph unicode="&#xff;" horiz-adv-x="976" d="M51 961q-3 9 1.5 14.5t15.5 5.5h143q19 0 25 -20l258 -709h4l247 709q6 20 25 20h139q9 0 14.5 -5.5t2.5 -14.5l-387 -1037q-63 -170 -130 -231.5t-180 -61.5h-53q-20 0 -20 21v119q0 20 20 20h37q61 0 97.5 32t68.5 116l33 90zM209 1223v149q0 21 20 21h121q9 0 15 -6 t6 -15v-149q0 -9 -6 -15t-15 -6h-121q-20 0 -20 21zM612 1223v149q0 9 6 15t15 6h121q20 0 20 -21v-149q0 -21 -20 -21h-121q-9 0 -15 6t-6 15z" />
<glyph unicode="&#x152;" horiz-adv-x="1941" d="M123 696q0 164 8.5 247t28.5 147q52 160 174 242.5t299 82.5q222 0 325 -143h3v100q0 21 20 21h838q20 0 20 -21v-129q0 -20 -20 -20h-664q-12 0 -12 -13v-409q0 -13 12 -13h563q21 0 21 -20v-129q0 -9 -6 -15t-15 -6h-563q-12 0 -12 -12v-424q0 -12 12 -12h664 q20 0 20 -20v-130q0 -20 -20 -20h-838q-20 0 -20 20v101h-3q-104 -144 -325 -144q-176 0 -298.5 83t-174.5 243q-20 64 -28.5 146.5t-8.5 246.5zM307 696q0 -243 31 -342q67 -207 295 -207q230 0 297 207q31 99 31 342t-31 342q-67 207 -297 207q-228 0 -295 -207 q-31 -99 -31 -342z" />
<glyph unicode="&#x153;" horiz-adv-x="1710" d="M109 492q0 152 32 247q40 126 142 195.5t245 69.5q224 0 330 -164h4q48 81 133 122.5t191 41.5q143 0 244 -69.5t141 -195.5q33 -90 33 -280q0 -21 -23 -21h-623q-12 0 -12 -12q3 -74 19 -119q58 -170 245 -170q161 0 252 109q16 16 31 4l84 -76q15 -12 2 -29 q-61 -77 -159 -122.5t-222 -45.5q-232 0 -336 168h-2q-108 -168 -332 -168q-142 0 -244.5 70t-142.5 195q-32 95 -32 250zM285 492q0 -128 22 -201q25 -74 82 -114t139 -40t139.5 40t82.5 114q22 73 22 201q0 125 -22 198q-25 74 -82.5 114t-139.5 40t-139 -40t-82 -114 q-22 -73 -22 -198zM946 588q0 -13 12 -13h457q12 0 12 13q0 60 -16 110q-25 74 -83.5 114t-141.5 40q-82 0 -141 -40.5t-82 -113.5q-17 -53 -17 -110z" />
<glyph unicode="&#x178;" horiz-adv-x="1077" d="M37 1370q-3 9 1.5 16t14.5 7h146q18 0 30 -21l312 -596h4l309 596q9 21 29 21h141q24 0 16 -23l-411 -801v-549q0 -20 -21 -20h-139q-20 0 -20 20v549zM254 1612v147q0 21 20 21h115q9 0 15 -6t6 -15v-147q0 -9 -6 -15t-15 -6h-115q-20 0 -20 21zM664 1612v147 q0 21 20 21h115q20 0 20 -21v-147q0 -21 -20 -21h-115q-20 0 -20 21z" />
<glyph unicode="&#x2c6;" horiz-adv-x="862" d="M156.5 1147.5q-2.5 6.5 3.5 13.5l194 252q15 21 33 21h88q18 0 33 -21l194 -252q6 -7 3.5 -13.5t-11.5 -6.5h-92q-22 0 -39 20l-129 144h-4l-131 -144q-17 -20 -39 -20h-92q-9 0 -11.5 6.5z" />
<glyph unicode="&#x2dc;" horiz-adv-x="862" d="M160 1198v98q0 21 14 37q66 66 139 66q58 0 129 -43q68 -37 109 -37q36 0 64.5 16.5t64.5 48.5q6 6 11 4t5 -8v-98q0 -21 -14 -37q-65 -65 -139 -65q-55 0 -129 43q-68 37 -109 37q-36 0 -64 -16.5t-65 -49.5q-6 -6 -11 -4t-5 8z" />
<glyph unicode="&#x2000;" horiz-adv-x="939" />
<glyph unicode="&#x2001;" horiz-adv-x="1878" />
<glyph unicode="&#x2002;" horiz-adv-x="939" />
<glyph unicode="&#x2003;" horiz-adv-x="1878" />
<glyph unicode="&#x2004;" horiz-adv-x="626" />
<glyph unicode="&#x2005;" horiz-adv-x="469" />
<glyph unicode="&#x2006;" horiz-adv-x="313" />
<glyph unicode="&#x2007;" horiz-adv-x="313" />
<glyph unicode="&#x2008;" horiz-adv-x="234" />
<glyph unicode="&#x2009;" horiz-adv-x="375" />
<glyph unicode="&#x200a;" horiz-adv-x="104" />
<glyph unicode="&#x2010;" horiz-adv-x="778" d="M96 485v119q0 9 6 15t15 6h545q20 0 20 -21v-119q0 -20 -20 -20h-545q-21 0 -21 20z" />
<glyph unicode="&#x2011;" horiz-adv-x="778" d="M96 485v119q0 9 6 15t15 6h545q20 0 20 -21v-119q0 -20 -20 -20h-545q-21 0 -21 20z" />
<glyph unicode="&#x2012;" horiz-adv-x="778" d="M96 485v119q0 9 6 15t15 6h545q20 0 20 -21v-119q0 -20 -20 -20h-545q-21 0 -21 20z" />
<glyph unicode="&#x2013;" horiz-adv-x="1048" d="M49 489v111q0 9 6 15t15 6h909q20 0 20 -21v-111q0 -20 -20 -20h-909q-21 0 -21 20z" />
<glyph unicode="&#x2014;" horiz-adv-x="1740" d="M49 489v111q0 9 6 15t15 6h1601q9 0 15 -6t6 -15v-111q0 -20 -21 -20h-1601q-21 0 -21 20z" />
<glyph unicode="&#x2018;" horiz-adv-x="440" d="M137 1051v170q0 22 15 43l106 116q14 17 27 17q18 0 18 -21v-325q0 -21 -20 -21h-125q-9 0 -15 6t-6 15z" />
<glyph unicode="&#x2019;" horiz-adv-x="440" d="M137 1047v325q0 9 6 15t15 6h125q20 0 20 -21v-170q0 -26 -12 -43l-107 -117q-13 -16 -28 -16q-8 0 -13.5 6t-5.5 15z" />
<glyph unicode="&#x201a;" horiz-adv-x="440" d="M137 -158v326q0 20 21 20h125q20 0 20 -20v-170q0 -29 -12 -43l-107 -117q-13 -16 -28 -16q-8 0 -13.5 5.5t-5.5 14.5z" />
<glyph unicode="&#x201c;" horiz-adv-x="761" d="M137 1051v170q0 22 15 43l106 116q14 17 27 17q18 0 18 -21v-325q0 -21 -20 -21h-125q-9 0 -15 6t-6 15zM459 1051v170q0 26 12 43l107 116q14 17 28 17q8 0 13.5 -6t5.5 -15v-325q0 -9 -6 -15t-15 -6h-125q-20 0 -20 21z" />
<glyph unicode="&#x201d;" horiz-adv-x="761" d="M137 1047v325q0 9 6 15t15 6h125q20 0 20 -21v-170q0 -29 -12 -43l-107 -117q-11 -16 -28 -16q-8 0 -13.5 6t-5.5 15zM459 1047v325q0 21 20 21h125q9 0 15 -6t6 -15v-170q0 -22 -15 -43l-106 -117q-13 -16 -27 -16q-18 0 -18 21z" />
<glyph unicode="&#x201e;" horiz-adv-x="761" d="M137 -158v326q0 20 21 20h125q20 0 20 -20v-170q0 -26 -12 -43l-107 -117q-13 -16 -28 -16q-8 0 -13.5 5.5t-5.5 14.5zM459 -158v326q0 20 20 20h125q21 0 21 -20v-170q0 -22 -15 -43l-106 -117q-13 -16 -27 -16q-18 0 -18 20z" />
<glyph unicode="&#x2022;" horiz-adv-x="905" d="M193 631q0 115 73 188.5t187 73.5q113 0 186.5 -73.5t73.5 -188.5t-73.5 -188.5t-186.5 -73.5q-114 0 -187 73.5t-73 188.5z" />
<glyph unicode="&#x2026;" horiz-adv-x="1449" d="M143 20v177q0 20 21 20h155q21 0 21 -20v-177q0 -20 -21 -20h-155q-21 0 -21 20zM627 20v177q0 20 20 20h156q20 0 20 -20v-177q0 -20 -20 -20h-156q-20 0 -20 20zM1110 20v177q0 20 20 20h156q21 0 21 -20v-177q0 -20 -21 -20h-156q-20 0 -20 20z" />
<glyph unicode="&#x202f;" horiz-adv-x="375" />
<glyph unicode="&#x2039;" horiz-adv-x="655" d="M104 526q-14 14 0 29l388 393q6 6 13 3.5t7 -11.5v-149q0 -20 -18 -41l-203 -201q-9 -9 0 -17l203 -200q18 -21 18 -41v-150q0 -9 -7 -11.5t-13 3.5z" />
<glyph unicode="&#x203a;" horiz-adv-x="655" d="M143 141v150q0 19 19 41l203 200q9 8 0 17l-203 201q-19 22 -19 41v149q0 9 7.5 11.5t13.5 -3.5l387 -393q6 -6 6 -14.5t-6 -14.5l-387 -393q-6 -6 -13.5 -3.5t-7.5 11.5z" />
<glyph unicode="&#x205f;" horiz-adv-x="469" />
<glyph unicode="&#x20ac;" d="M92 528v86q0 9 6 15t15 6h86q12 0 12 12v111q0 12 -12 12h-86q-9 0 -15 6t-6 15v86q0 20 21 20h86q12 0 12 12q0 141 27 226q44 136 145.5 208t249.5 72q138 0 233 -66t146 -175q9 -18 -6 -27l-111 -55q-18 -7 -27 10q-40 74 -95.5 113.5t-139.5 39.5q-173 0 -225 -161 q-21 -62 -21 -185q0 -12 12 -12h392q20 0 20 -20l-20 -86q-6 -21 -21 -21h-371q-12 0 -12 -12v-111q0 -12 12 -12h351q20 0 20 -21l-20 -86q-6 -20 -21 -20h-330q-12 0 -12 -12q0 -136 21 -197q52 -162 225 -162q84 0 139.5 39.5t95.5 114.5q9 17 27 10l111 -55q15 -9 6 -27 q-51 -110 -146 -176t-233 -66q-148 0 -249.5 72t-145.5 209q-27 86 -27 238q0 12 -12 12h-86q-21 0 -21 20z" />
<glyph unicode="&#x2122;" horiz-adv-x="1705" d="M84 1294v78q0 21 20 21h588q9 0 15 -6t6 -15v-78q0 -20 -21 -20h-215q-12 0 -12 -12v-656q0 -20 -21 -20h-92q-20 0 -20 20v656q0 12 -13 12h-215q-20 0 -20 20zM858 606v766q0 9 6 15t15 6h79q18 0 27 -19l242 -516h6l237 516q10 19 29 19h80q20 0 20 -21v-766 q0 -20 -20 -20h-84q-20 0 -20 20v494h-5l-182 -379q-10 -21 -26 -21h-68q-14 0 -25 21l-182 379h-4v-494q0 -20 -20 -20h-84q-21 0 -21 20z" />
<glyph unicode="&#x25fc;" horiz-adv-x="983" d="M0 0v983h983v-983h-983z" />
</font>
</defs>
</svg>
