<?xml version="1.0" standalone="no"?>
<!DOCTYPE svg PUBLIC "-//W3C//DTD SVG 1.1//EN" "http://www.w3.org/Graphics/SVG/1.1/DTD/svg11.dtd" >
<svg xmlns="http://www.w3.org/2000/svg" xmlns:xlink="http://www.w3.org/1999/xlink" version="1.1">
<metadata></metadata>
<defs>
<font id="din_next_lt_promedium" horiz-adv-x="1124" >
<font-face units-per-em="2048" ascent="1536" descent="-512" />
<missing-glyph horiz-adv-x="483" />
<glyph unicode="&#xfb01;" horiz-adv-x="1200" d="M82 829v138q0 20 20 20h66q12 0 12 12v64q0 169 82 249.5t246 80.5h90q20 0 20 -21v-164q0 -20 -20 -20h-63q-76 0 -100.5 -24t-24.5 -97v-68q0 -12 12 -12h176q20 0 20 -20v-138q0 -20 -20 -20h-176q-12 0 -12 -12v-777q0 -20 -21 -20h-188q-21 0 -21 20v777 q0 12 -12 12h-66q-20 0 -20 20zM821 20v947q0 20 21 20h188q21 0 21 -20v-947q0 -20 -21 -20h-188q-21 0 -21 20zM821 1194v178q0 9 6 15t15 6h188q9 0 15 -6t6 -15v-178q0 -20 -21 -20h-188q-21 0 -21 20z" />
<glyph unicode="&#xfb02;" horiz-adv-x="1267" d="M82 829v138q0 20 20 20h66q12 0 12 12v64q0 169 82 249.5t246 80.5h90q20 0 20 -21v-164q0 -20 -20 -20h-63q-76 0 -100.5 -24t-24.5 -97v-68q0 -12 12 -12h176q20 0 20 -20v-138q0 -20 -20 -20h-176q-12 0 -12 -12v-777q0 -20 -21 -20h-188q-21 0 -21 20v777 q0 12 -12 12h-66q-20 0 -20 20zM817 270v1102q0 9 6 15t15 6h188q9 0 15 -6t6 -15v-1089q0 -50 20.5 -70t65.5 -20h45q20 0 20 -21v-164q0 -20 -20 -20h-91q-143 0 -206.5 68.5t-63.5 213.5z" />
<glyph unicode="&#xfb03;" horiz-adv-x="1871" d="M82 829v138q0 20 20 20h66q12 0 12 12v64q0 169 82 249.5t246 80.5h90q20 0 20 -21v-164q0 -20 -20 -20h-63q-76 0 -100.5 -24t-24.5 -97v-68q0 -12 12 -12h176q20 0 20 -20v-138q0 -20 -20 -20h-176q-12 0 -12 -12v-777q0 -20 -21 -20h-188q-21 0 -21 20v777 q0 12 -12 12h-66q-20 0 -20 20zM754 829v138q0 20 20 20h66q12 0 12 12v64q0 169 82 249.5t246 80.5h90q20 0 20 -21v-164q0 -20 -20 -20h-64q-76 0 -100.5 -24t-24.5 -97v-68q0 -12 13 -12h176q20 0 20 -20v-138q0 -20 -20 -20h-176q-13 0 -13 -12v-777q0 -20 -20 -20h-189 q-20 0 -20 20v777q0 12 -12 12h-66q-20 0 -20 20zM1493 20v947q0 20 20 20h189q20 0 20 -20v-947q0 -20 -20 -20h-189q-20 0 -20 20zM1493 1194v178q0 21 20 21h189q20 0 20 -21v-178q0 -20 -20 -20h-189q-20 0 -20 20z" />
<glyph unicode="&#xfb04;" horiz-adv-x="1939" d="M82 829v138q0 20 20 20h66q12 0 12 12v64q0 169 82 249.5t246 80.5h90q20 0 20 -21v-164q0 -20 -20 -20h-63q-76 0 -100.5 -24t-24.5 -97v-68q0 -12 12 -12h176q20 0 20 -20v-138q0 -20 -20 -20h-176q-12 0 -12 -12v-777q0 -20 -21 -20h-188q-21 0 -21 20v777 q0 12 -12 12h-66q-20 0 -20 20zM754 829v138q0 20 20 20h66q12 0 12 12v64q0 169 82 249.5t246 80.5h90q20 0 20 -21v-164q0 -20 -20 -20h-64q-76 0 -100.5 -24t-24.5 -97v-68q0 -12 13 -12h176q20 0 20 -20v-138q0 -20 -20 -20h-176q-13 0 -13 -12v-777q0 -20 -20 -20h-189 q-20 0 -20 20v777q0 12 -12 12h-66q-20 0 -20 20zM1489 270v1102q0 21 20 21h189q20 0 20 -21v-1089q0 -50 20.5 -70t65.5 -20h45q9 0 15 -6t6 -15v-164q0 -20 -21 -20h-90q-143 0 -206.5 68.5t-63.5 213.5z" />
<glyph horiz-adv-x="0" />
<glyph horiz-adv-x="682" />
<glyph unicode=" "  horiz-adv-x="483" />
<glyph unicode="&#x09;" horiz-adv-x="483" />
<glyph unicode="&#xa0;" horiz-adv-x="483" />
<glyph unicode="!" horiz-adv-x="628" d="M186 1372q0 9 6 15t15 6h215q20 0 20 -21l-47 -962q0 -21 -20 -21h-121q-9 0 -15 6t-6 15zM190 20v209q0 9 6 15t15 6h205q20 0 20 -21v-209q0 -20 -20 -20h-205q-21 0 -21 20z" />
<glyph unicode="&#x22;" horiz-adv-x="706" d="M125 1020v352q0 21 20 21h125q9 0 15 -6t6 -15v-352q0 -9 -6 -15t-15 -6h-125q-20 0 -20 21zM414 1020v352q0 21 20 21h127q9 0 15 -6t6 -15v-352q0 -9 -6 -15t-15 -6h-127q-20 0 -20 21z" />
<glyph unicode="#" horiz-adv-x="1052" d="M41 451v118q0 21 20 21h158l33 237h-137q-9 0 -15 6t-6 15v119q0 20 21 20h157l54 385q4 21 22 21h129q10 0 15.5 -6t3.5 -15l-54 -385h238l53 385q3 21 23 21h129q21 0 18 -21l-53 -385h141q21 0 21 -20v-119q0 -9 -6 -15t-15 -6h-162l-32 -237h141q20 0 20 -21v-118 q0 -21 -20 -21h-164l-55 -410q-3 -20 -23 -20h-129q-21 0 -18 20l55 410h-237l-56 -410q-3 -20 -22 -20h-129q-22 0 -19 20l56 410h-136q-20 0 -20 21zM389 590h238l32 237h-237z" />
<glyph unicode="$" d="M119 156l108 137q14 17 29 2q118 -98 262 -111v420q-176 29 -275.5 133t-99.5 260q0 169 104.5 283t270.5 131v107q0 20 21 20h79q21 0 21 -20v-107q172 -14 313 -108q15 -12 4 -29l-94 -139q-12 -15 -28 -5q-95 60 -195 74v-399q184 -30 280.5 -132.5t96.5 -262.5 q0 -173 -101 -287t-276 -139v-109q0 -20 -21 -20h-79q-21 0 -21 20v105q-223 9 -395 145q-18 14 -4 31zM367 1014q0 -69 34 -115.5t117 -69.5v375q-69 -14 -110 -65.5t-41 -124.5zM639 190q154 38 154 211q0 135 -154 181v-392z" />
<glyph unicode="%" horiz-adv-x="1601" d="M127 1042q0 104 2.5 137t13.5 66q25 75 92 119.5t158 44.5q90 0 157.5 -45t92.5 -119q11 -33 13.5 -66t2.5 -137t-2.5 -136.5t-13.5 -65.5q-25 -74 -92.5 -119t-157.5 -45q-91 0 -158 44.5t-92 119.5q-11 33 -13.5 65.5t-2.5 136.5zM295 1042q0 -138 8 -159 q22 -60 90 -60q32 0 55.5 15.5t32.5 44.5q8 21 8 159t-8 162q-9 27 -33 42.5t-55 15.5q-68 0 -90 -58q-8 -24 -8 -162zM307 -16.5q-3 6.5 2 14.5l809 1397q11 20 33 20h133q9 0 12 -6.5t-2 -13.5l-809 -1397q-12 -21 -30 -21h-136q-9 0 -12 6.5zM940 348q0 99 3 133.5 t13 69.5q25 74 93 119t159 45q90 0 157.5 -45t92.5 -119q11 -34 14 -67.5t3 -135.5t-3 -135.5t-14 -67.5q-25 -74 -92.5 -118.5t-157.5 -44.5q-91 0 -159 44.5t-93 118.5q-10 35 -13 69.5t-3 133.5zM1110 348q0 -139 8 -160q21 -59 90 -59q32 0 55.5 15.5t32.5 43.5 q9 24 9 160q0 135 -9 162t-32.5 42t-55.5 15q-68 0 -90 -57q-8 -24 -8 -162z" />
<glyph unicode="&#x26;" horiz-adv-x="1323" d="M129 350q0 114 60 213.5t204 212.5q-89 114 -122 180t-33 140q0 138 100 228.5t246 90.5q150 0 245 -92t95 -221q0 -95 -53.5 -174t-188.5 -183l217 -278l139 166q12 15 29 2l113 -96q17 -13 4 -29l-164 -199l49 -61q34 -45 84 -45h31q20 0 20 -21v-164q0 -20 -20 -20 h-68q-69 0 -110.5 22.5t-92.5 86.5l-34 43q-89 -92 -174 -133.5t-189 -41.5q-186 0 -286.5 103t-100.5 270zM342 362q0 -84 51 -135t139 -51q58 0 109 28.5t119 100.5l-246 316q-172 -132 -172 -259zM453 1102q0 -37 19.5 -74t88.5 -127q93 72 123.5 114t30.5 89 q0 51 -37 87t-92 36q-58 0 -95.5 -35.5t-37.5 -89.5z" />
<glyph unicode="'" horiz-adv-x="415" d="M125 1020v352q0 21 20 21h125q9 0 15 -6t6 -15v-352q0 -9 -6 -15t-15 -6h-125q-20 0 -20 21z" />
<glyph unicode="(" horiz-adv-x="600" d="M104 672q0 215 66.5 428.5t196.5 394.5q15 21 34 21h101q9 0 12.5 -6t-0.5 -15q-92 -184 -141 -397.5t-49 -425.5q0 -211 50 -428t140 -396q4 -9 0.5 -14.5t-12.5 -5.5h-101q-20 0 -34 20q-131 184 -197 396t-66 428z" />
<glyph unicode=")" horiz-adv-x="600" d="M85.5 -166.5q-3.5 5.5 0.5 14.5q90 179 140 396t50 428q0 212 -49 425.5t-141 397.5q-4 9 -0.5 15t12.5 6h101q19 0 34 -21q130 -181 196.5 -394.5t66.5 -428.5q0 -216 -66 -428t-197 -396q-14 -20 -34 -20h-101q-9 0 -12.5 5.5z" />
<glyph unicode="*" horiz-adv-x="686" d="M64 1005q2 8 10 13l143 80l-143 80q-18 11 -8 28l43 78q11 18 28 8l144 -86l-2 166q0 21 20 21h88q9 0 15 -6t6 -15l-2 -166l143 86q8 4 16 2t13 -10l43 -78q10 -17 -9 -28l-143 -80l143 -80q19 -12 9 -29l-43 -78q-5 -8 -13 -10t-16 2l-143 86l2 -166q0 -20 -21 -20h-88 q-20 0 -20 20l2 166l-144 -86q-17 -10 -28 8l-43 78q-4 8 -2 16z" />
<glyph unicode="+" d="M113 485v160q0 21 20 21h313q13 0 13 12v315q0 21 20 21h166q9 0 15 -6t6 -15v-315q0 -12 12 -12h313q9 0 15 -6t6 -15v-160q0 -20 -21 -20h-313q-12 0 -12 -12v-316q0 -20 -21 -20h-166q-20 0 -20 20v316q0 12 -13 12h-313q-20 0 -20 20z" />
<glyph unicode="," horiz-adv-x="503" d="M135 -207v436q0 9 6 15t15 6h192q9 0 15 -6t6 -15v-223q0 -28 -15 -43l-170 -176q-14 -14 -28 -14q-21 0 -21 20z" />
<glyph unicode="-" horiz-adv-x="788" d="M92 463v162q0 20 21 20h563q20 0 20 -20v-162q0 -21 -20 -21h-563q-9 0 -15 6t-6 15z" />
<glyph unicode="." horiz-adv-x="516" d="M135 20v209q0 9 6 15t15 6h204q9 0 15 -6t6 -15v-209q0 -20 -21 -20h-204q-21 0 -21 20z" />
<glyph unicode="/" horiz-adv-x="870" d="M111 -2l454 1397q6 20 27 20h153q9 0 13.5 -5.5t1.5 -14.5l-455 -1397q-6 -21 -26 -21h-154q-9 0 -13 6t-1 15z" />
<glyph unicode="0" d="M137 696q0 224 7 311t22 136q42 132 141.5 202t253.5 70q153 0 253.5 -70t143.5 -202q15 -49 22 -136t7 -311t-7 -310.5t-22 -135.5q-43 -132 -143.5 -202.5t-253.5 -70.5t-253 70.5t-142 202.5q-15 49 -22 135.5t-7 310.5zM373 696q0 -226 3.5 -297.5t14.5 -105.5 q41 -111 170 -111q131 0 172 111q11 35 15 107.5t4 295.5t-4 296.5t-15 107.5q-40 110 -172 110q-130 0 -170 -110q-11 -34 -14.5 -106t-3.5 -298z" />
<glyph unicode="1" d="M266 981v209q0 17 15 29l223 161q16 13 37 13h174q20 0 20 -21v-1352q0 -20 -20 -20h-189q-20 0 -20 20v1098h-4l-213 -149q-9 -6 -16 -3t-7 15z" />
<glyph unicode="2" d="M147 20v154q0 16 11 27l491 612q90 111 90 213q0 80 -49.5 132t-134.5 52q-81 0 -129 -46t-59 -128q-3 -19 -23 -16l-180 37q-20 3 -17 24q7 64 36 122t78 106t127 77t173 29q190 0 300 -110.5t110 -278.5q0 -169 -131 -326l-406 -491v-4h516q9 0 15 -6t6 -15v-164 q0 -20 -21 -20h-782q-21 0 -21 20z" />
<glyph unicode="3" d="M125 276q-3 21 16 27l178 41q19 4 25 -14q24 -66 76.5 -107t134.5 -41q95 0 150 58t55 149q0 105 -62 166t-166 61h-59q-20 0 -20 21v162q0 20 20 20h55q92 0 147.5 55.5t55.5 147.5q0 85 -50 136.5t-136 51.5q-145 0 -187 -143q-6 -17 -24 -14l-174 41q-20 3 -17 24 q24 130 134.5 213.5t275.5 83.5q191 0 300.5 -106.5t109.5 -278.5q0 -88 -40 -163t-116 -126v-4q71 -30 127.5 -121t56.5 -217q0 -188 -123 -305t-313 -117q-165 0 -281.5 79t-148.5 220z" />
<glyph unicode="4" d="M94 233v158q0 16 6 25l451 960q9 17 29 17h194q10 0 13.5 -5.5t0.5 -13.5l-442 -952v-4h316q12 0 12 12v348q0 21 20 21h189q20 0 20 -21v-348q0 -12 12 -12h103q20 0 20 -21v-164q0 -20 -20 -20h-103q-12 0 -12 -12v-181q0 -20 -20 -20h-189q-20 0 -20 20v181 q0 12 -12 12h-547q-21 0 -21 20z" />
<glyph unicode="5" d="M166 264q-4 18 16 25l174 43q18 3 25 -17q21 -61 69.5 -97t122.5 -36q61 0 107.5 30t64.5 85q19 50 19 154q0 98 -19 153q-38 115 -174 115q-64 0 -107 -28t-63 -68q-9 -21 -24 -21h-172q-9 0 -15 6t-6 15v749q0 9 6 15t15 6h741q9 0 15 -6t6 -15v-164q0 -20 -21 -20 h-538q-13 0 -13 -12v-314h6q30 25 83.5 43.5t121.5 18.5q134 0 228 -61.5t131 -174.5q30 -98 30 -237q0 -134 -28 -220q-39 -119 -146 -186.5t-248 -67.5q-161 0 -272.5 79t-134.5 208z" />
<glyph unicode="6" d="M119 408q0 149 92 319l364 653q8 13 25 13h197q10 0 13.5 -6t-1.5 -15l-307 -557l4 -4q36 18 104 18q167 0 282.5 -112.5t115.5 -298.5q0 -207 -126 -324t-319 -117q-192 0 -318 115.5t-126 315.5zM352 403q0 -99 57.5 -160t153.5 -61q97 0 155 61t58 160t-58 160.5 t-155 61.5q-96 0 -153.5 -61.5t-57.5 -160.5z" />
<glyph unicode="7" d="M164 1016v356q0 21 20 21h781q20 0 20 -21v-160q0 -21 -6 -36l-461 -1158q-5 -11 -9.5 -14.5t-16.5 -3.5h-195q-9 0 -12.5 6t0.5 17l454 1159v6h-346q-12 0 -12 -12v-160q0 -9 -6 -15t-15 -6h-176q-20 0 -20 21z" />
<glyph unicode="8" d="M113 395q0 112 49 199t125 135v4q-59 40 -101.5 115.5t-42.5 169.5q0 79 28 150.5t80 126.5t132 87.5t178 32.5q194 0 307 -116t113 -281q0 -94 -42 -170t-101 -115v-4q76 -48 125 -135t49 -199q0 -185 -126 -301.5t-325 -116.5q-197 0 -322.5 116.5t-125.5 301.5z M344 406q0 -99 59.5 -161.5t157.5 -62.5q99 0 159 62.5t60 161.5q0 98 -60 160.5t-159 62.5q-97 0 -157 -62.5t-60 -160.5zM375 1022q0 -78 52 -133t134 -55q84 0 136.5 55t52.5 133q0 79 -52.5 133.5t-136.5 54.5q-83 0 -134.5 -54.5t-51.5 -133.5z" />
<glyph unicode="9" d="M117 975q0 104 34.5 188.5t95 139t141 83.5t173.5 29q194 0 319.5 -115t125.5 -315q0 -153 -93 -319l-362 -654q-7 -12 -25 -12h-198q-23 0 -13 20l308 558l-5 4q-34 -19 -104 -19q-166 0 -281.5 113t-115.5 299zM350 989q0 -99 57.5 -160t153.5 -61q97 0 155 61t58 160 t-58 160t-155 61q-96 0 -153.5 -61t-57.5 -160z" />
<glyph unicode=":" horiz-adv-x="532" d="M143 20v209q0 9 6 15t15 6h205q20 0 20 -21v-209q0 -20 -20 -20h-205q-21 0 -21 20zM143 758v209q0 20 21 20h205q20 0 20 -20v-209q0 -21 -20 -21h-205q-9 0 -15 6t-6 15z" />
<glyph unicode=";" horiz-adv-x="532" d="M143 758v209q0 20 21 20h205q20 0 20 -20v-209q0 -21 -20 -21h-205q-9 0 -15 6t-6 15zM150 -207v436q0 21 20 21h192q9 0 15 -6t6 -15v-223q0 -27 -12 -41l-172 -178q-14 -14 -29 -14q-20 0 -20 20z" />
<glyph unicode="&#x3c;" d="M113 498v135q0 22 20 29l858 352q21 7 21 -13v-182q0 -18 -21 -26l-585 -226v-4l585 -225q21 -8 21 -27v-182q0 -19 -21 -12l-858 352q-20 7 -20 29z" />
<glyph unicode="=" d="M113 281v159q0 21 20 21h858q9 0 15 -6t6 -15v-159q0 -9 -6 -15t-15 -6h-858q-20 0 -20 21zM113 690v160q0 20 20 20h858q21 0 21 -20v-160q0 -20 -21 -20h-858q-20 0 -20 20z" />
<glyph unicode="&#x3e;" d="M113 129v182q0 18 20 27l586 225v4l-586 226q-20 9 -20 26v182q0 20 20 13l858 -352q21 -7 21 -29v-135q0 -22 -21 -29l-858 -352q-20 -7 -20 12z" />
<glyph unicode="?" horiz-adv-x="950" d="M70 1083q25 155 131.5 243.5t273.5 88.5q169 0 277 -99.5t108 -256.5q0 -128 -84 -240l-162 -221q-24 -30 -32.5 -57t-8.5 -72v-59q0 -21 -20 -21h-191q-20 0 -20 21v84q0 59 12 96.5t41 77.5l162 221q70 94 70 168q0 67 -44 110t-116 43q-71 0 -115.5 -42t-58.5 -121 q-3 -20 -23 -17l-184 29q-20 3 -16 24zM334 20v209q0 21 20 21h205q9 0 15 -6t6 -15v-209q0 -20 -21 -20h-205q-20 0 -20 20z" />
<glyph unicode="@" horiz-adv-x="1843" d="M111 549q0 175 59.5 324.5t165.5 254.5t257.5 164.5t328.5 59.5t328.5 -60t257 -165.5t165.5 -254.5t60 -323q0 -214 -96.5 -326t-241.5 -112q-174 0 -248 131h-2q-66 -129 -271 -129q-229 0 -294 200q-27 83 -27 228t27 227q32 99 105.5 150t180.5 51q77 0 135.5 -30 t85.5 -75h5v64q0 18 16 18h152q16 0 16 -18v-506q0 -72 33.5 -107.5t85.5 -35.5q149 0 149 270q0 187 -74.5 330.5t-216.5 224t-331 80.5q-286 0 -454.5 -174t-168.5 -461t168.5 -461t454.5 -174q135 0 237 23t201 69q20 10 29 -10l47 -111q9 -15 -9 -26 q-111 -59 -230.5 -86t-274.5 -27q-177 0 -328.5 59.5t-257.5 164.5t-165.5 254.5t-59.5 324.5zM741 541q0 -97 15 -146q40 -112 162 -112t159 112q15 50 15 146q0 97 -15 143q-37 115 -159 115t-162 -115q-15 -46 -15 -143z" />
<glyph unicode="A" horiz-adv-x="1263" d="M37 20l477 1352q7 21 27 21h188q20 0 27 -21l471 -1352q7 -20 -15 -20h-200q-21 0 -27 20l-92 271h-524l-93 -271q-6 -20 -26 -20h-199q-21 0 -14 20zM442 506h377l-184 541h-6z" />
<glyph unicode="B" horiz-adv-x="1243" d="M154 20v1352q0 21 20 21h518q215 0 324.5 -99t109.5 -272q0 -209 -161 -295v-4q73 -28 129.5 -111.5t56.5 -201.5q0 -204 -123.5 -307t-355.5 -103h-498q-20 0 -20 20zM395 225q0 -12 13 -12h290q100 0 155.5 53t55.5 142q0 88 -55.5 140t-155.5 52h-290q-13 0 -13 -12 v-363zM395 825q0 -12 13 -12h278q92 0 145.5 50t53.5 132q0 84 -53.5 134.5t-145.5 50.5h-278q-13 0 -13 -13v-342z" />
<glyph unicode="C" horiz-adv-x="1177" d="M113 696q0 163 7.5 237t29.5 140q53 168 178.5 255t304.5 87q165 0 287.5 -79.5t183.5 -219.5q7 -17 -10 -24l-174 -84q-19 -10 -27 10q-83 180 -260 180q-186 0 -250 -184q-14 -45 -19.5 -108t-5.5 -210t5.5 -209.5t19.5 -107.5q64 -184 250 -184q177 0 260 180 q8 20 27 10l174 -84q17 -7 10 -25q-61 -140 -183.5 -219.5t-287.5 -79.5q-179 0 -304.5 87t-178.5 255q-22 66 -29.5 140t-7.5 237z" />
<glyph unicode="D" horiz-adv-x="1280" d="M154 20v1352q0 21 20 21h498q180 0 297.5 -79t167.5 -231q19 -56 26.5 -135.5t7.5 -251.5t-7.5 -251.5t-26.5 -135.5q-50 -152 -167.5 -230.5t-297.5 -78.5h-498q-20 0 -20 20zM395 229q0 -12 13 -12h206q117 0 188 42t101 134q25 70 25 303t-25 303q-30 92 -101 134.5 t-188 42.5h-206q-13 0 -13 -13v-934z" />
<glyph unicode="E" horiz-adv-x="1167" d="M154 20v1352q0 21 20 21h873q20 0 20 -21v-176q0 -20 -20 -20h-639q-13 0 -13 -13v-340q0 -12 13 -12h538q21 0 21 -20v-177q0 -20 -21 -20h-538q-13 0 -13 -12v-353q0 -12 13 -12h639q20 0 20 -20v-177q0 -20 -20 -20h-873q-20 0 -20 20z" />
<glyph unicode="F" horiz-adv-x="1148" d="M154 20v1352q0 21 20 21h873q20 0 20 -21v-176q0 -20 -20 -20h-639q-13 0 -13 -13v-354q0 -12 13 -12h538q9 0 15 -6t6 -15v-176q0 -20 -21 -20h-538q-13 0 -13 -13v-547q0 -20 -20 -20h-201q-20 0 -20 20z" />
<glyph unicode="G" horiz-adv-x="1284" d="M113 696q0 163 7.5 240.5t29.5 142.5q54 164 182.5 250t314.5 86q185 0 312.5 -84.5t173.5 -210.5q7 -18 -9 -28l-172 -76q-18 -6 -26 10q-47 86 -114.5 129t-166.5 43q-199 0 -262 -182q-25 -80 -25 -320q0 -239 25 -319q63 -182 262 -182q94 0 165.5 45.5t98.5 128.5 q23 71 23 180q0 12 -12 12h-230q-20 0 -20 21v163q0 21 20 21h461q20 0 20 -21v-120q0 -209 -32 -306q-51 -162 -181 -252t-311 -90q-186 0 -314.5 86t-182.5 250q-22 65 -29.5 142.5t-7.5 240.5z" />
<glyph unicode="H" horiz-adv-x="1345" d="M154 20v1352q0 21 20 21h201q20 0 20 -21v-549q0 -12 13 -12h530q12 0 12 12v549q0 9 6 15t15 6h200q9 0 15 -6t6 -15v-1352q0 -20 -21 -20h-200q-21 0 -21 20v562q0 12 -12 12h-530q-13 0 -13 -12v-562q0 -20 -20 -20h-201q-20 0 -20 20z" />
<glyph unicode="I" horiz-adv-x="548" d="M154 20v1352q0 21 20 21h201q20 0 20 -21v-1352q0 -20 -20 -20h-201q-20 0 -20 20z" />
<glyph unicode="J" horiz-adv-x="1038" d="M49 145q-10 17 4 29l150 113q17 10 30 -6q30 -35 80 -60.5t107 -25.5q111 0 171 69.5t60 204.5v903q0 9 6 15t15 6h200q9 0 15 -6t6 -15v-903q0 -234 -128.5 -363t-352.5 -129q-115 0 -215.5 48.5t-147.5 119.5z" />
<glyph unicode="K" horiz-adv-x="1296" d="M154 20v1352q0 21 20 21h201q20 0 20 -21v-655l527 659q14 17 32 17h234q9 0 12 -9t-4 -18l-432 -520l481 -821q6 -11 2 -18t-16 -7h-227q-20 0 -31 16l-365 643l-213 -258v-381q0 -20 -20 -20h-201q-20 0 -20 20z" />
<glyph unicode="L" horiz-adv-x="1116" d="M154 20v1352q0 21 20 21h201q20 0 20 -21v-1143q0 -12 13 -12h639q20 0 20 -20v-177q0 -20 -20 -20h-873q-20 0 -20 20z" />
<glyph unicode="M" horiz-adv-x="1548" d="M154 20v1352q0 21 20 21h182q26 0 35 -21l383 -858h8l377 858q9 21 35 21h180q9 0 15 -6t6 -15v-1352q0 -20 -21 -20h-178q-20 0 -20 20v852h-9l-295 -655q-12 -27 -38 -27h-119q-27 0 -39 27l-295 655h-8v-852q0 -20 -21 -20h-178q-20 0 -20 20z" />
<glyph unicode="N" horiz-adv-x="1345" d="M154 20v1352q0 21 20 21h188q23 0 35 -21l568 -960h8v960q0 21 20 21h178q9 0 15 -6t6 -15v-1352q0 -20 -21 -20h-186q-24 0 -35 20l-569 959h-8v-959q0 -20 -21 -20h-178q-20 0 -20 20z" />
<glyph unicode="O" horiz-adv-x="1284" d="M113 696q0 163 7.5 240.5t29.5 142.5q53 164 181 250t310 86q184 0 312.5 -86t181.5 -250q22 -64 29 -141t7 -242t-7 -242t-29 -141q-53 -164 -181.5 -250t-312.5 -86q-182 0 -310 86t-181 250q-22 65 -29.5 142.5t-7.5 240.5zM358 696q0 -239 25 -319q63 -182 258 -182 q197 0 260 182q25 80 25 319q0 240 -25 320q-63 182 -260 182q-195 0 -258 -182q-25 -80 -25 -320z" />
<glyph unicode="P" horiz-adv-x="1224" d="M154 20v1352q0 21 20 21h522q203 0 331 -119.5t128 -312.5q0 -194 -128 -314.5t-331 -120.5h-288q-13 0 -13 -12v-494q0 -20 -20 -20h-201q-20 0 -20 20zM395 758q0 -13 13 -13h274q106 0 168.5 59t62.5 157q0 96 -62.5 155.5t-168.5 59.5h-274q-13 0 -13 -13v-405z" />
<glyph unicode="Q" horiz-adv-x="1284" d="M113 696q0 163 7.5 240.5t29.5 142.5q53 164 181 250t310 86q184 0 312.5 -86t181.5 -250q22 -64 29 -141t7 -242t-7 -242t-29 -141q-18 -52 -41 -94l151 -145q13 -13 0 -29l-127 -135q-16 -16 -31 0l-151 143q-122 -76 -295 -76q-182 0 -310 86t-181 250 q-22 65 -29.5 142.5t-7.5 240.5zM354 696q0 -239 25 -319q64 -184 262 -184q77 0 125 22l-139 135q-6 4 -6 12.5t6 16.5l129 135q15 15 28 2l125 -121q21 77 21 301q0 240 -25 320q-64 184 -264 184q-198 0 -262 -184q-25 -80 -25 -320z" />
<glyph unicode="R" horiz-adv-x="1267" d="M154 20v1352q0 21 20 21h539q193 0 318.5 -116.5t125.5 -299.5q0 -135 -71 -236.5t-193 -146.5l293 -567q6 -11 1 -19t-16 -8h-227q-22 0 -31 20l-266 543h-239q-13 0 -13 -12v-531q0 -20 -20 -20h-201q-20 0 -20 20zM395 793q0 -13 13 -13h297q96 0 154.5 54t58.5 143 q0 90 -58.5 144.5t-154.5 54.5h-297q-13 0 -13 -13v-370z" />
<glyph unicode="S" horiz-adv-x="1202" d="M76 193l127 147q13 17 28 2q184 -147 379 -147q122 0 192 55t70 145q0 79 -57.5 126.5t-196.5 66.5l-73 10q-204 28 -312 127t-108 270q0 190 128.5 305t342.5 115q128 0 247 -37.5t204 -101.5q15 -12 4 -29l-99 -151q-12 -15 -28 -6q-165 108 -334 108 q-104 0 -161.5 -51t-57.5 -135q0 -75 60 -122t196 -67l73 -10q416 -57 416 -403q0 -193 -136.5 -313t-387.5 -120q-148 0 -287.5 52.5t-224.5 132.5q-16 16 -4 31z" />
<glyph unicode="T" horiz-adv-x="1126" d="M45 1196v176q0 9 6 15t15 6h995q20 0 20 -21v-176q0 -20 -20 -20h-365q-12 0 -12 -13v-1143q0 -20 -20 -20h-201q-21 0 -21 20v1143q0 13 -12 13h-364q-21 0 -21 20z" />
<glyph unicode="U" horiz-adv-x="1316" d="M145 489v883q0 9 6 15t15 6h201q20 0 20 -21v-878q0 -142 74 -220.5t196 -78.5q123 0 198 78.5t75 220.5v878q0 21 20 21h201q20 0 20 -21v-883q0 -158 -67 -275.5t-183 -177t-264 -59.5q-225 0 -368.5 137t-143.5 375z" />
<glyph unicode="V" horiz-adv-x="1157" d="M29 1372q-3 9 2 15t14 6h199q20 0 26 -21l312 -987h6l299 987q6 21 26 21h199q9 0 14 -6t2 -15l-442 -1352q-7 -20 -24 -20h-168q-18 0 -25 20z" />
<glyph unicode="W" horiz-adv-x="1693" d="M33 1372q-3 21 16 21h193q20 0 24 -21l221 -938h5l260 938q7 21 24 21h144q17 0 24 -21l266 -938h4l216 938q3 21 24 21h191q19 0 16 -21l-340 -1352q-3 -20 -25 -20h-155q-18 0 -25 20l-266 953h-4l-268 -953q-7 -20 -25 -20h-154q-17 0 -24 20z" />
<glyph unicode="X" horiz-adv-x="1171" d="M32.5 8q-3.5 8 2.5 19l416 694l-385 645q-6 10 -2.5 18.5t14.5 8.5h221q21 0 33 -21l252 -422h4l252 422q12 21 32 21h222q11 0 14.5 -8.5t-2.5 -18.5l-385 -645l416 -694q6 -11 2 -19t-15 -8h-223q-22 0 -33 20l-280 474h-4l-283 -474q-11 -20 -33 -20h-221 q-11 0 -14.5 8z" />
<glyph unicode="Y" horiz-adv-x="1097" d="M25 1372q-3 8 1.5 14.5t14.5 6.5h207q19 0 28 -21l273 -541h6l274 541q9 21 29 21h199q11 0 15 -6.5t1 -14.5l-403 -803v-549q0 -20 -21 -20h-200q-21 0 -21 20v549z" />
<glyph unicode="Z" horiz-adv-x="1089" d="M92 20v177q0 10 6 22l629 952v5h-592q-20 0 -20 20v176q0 21 20 21h844q20 0 20 -21v-176q0 -11 -6 -20l-628 -955v-4h614q20 0 20 -20v-177q0 -20 -20 -20h-866q-21 0 -21 20z" />
<glyph unicode="[" horiz-adv-x="573" d="M127 -152v1647q0 21 20 21h342q9 0 15 -6t6 -15v-135q0 -9 -6 -15t-15 -6h-139q-12 0 -12 -12v-1311q0 -12 12 -12h139q21 0 21 -20v-136q0 -20 -21 -20h-342q-20 0 -20 20z" />
<glyph unicode="\" horiz-adv-x="870" d="M111 1395q-3 9 1 14.5t13 5.5h154q20 0 26 -20l455 -1397q3 -9 -1.5 -15t-13.5 -6h-153q-21 0 -27 21z" />
<glyph unicode="]" horiz-adv-x="573" d="M63 -16q0 20 21 20h139q13 0 13 12v1311q0 12 -13 12h-139q-9 0 -15 6t-6 15v135q0 9 6 15t15 6h342q20 0 20 -21v-1647q0 -20 -20 -20h-342q-21 0 -21 20v136z" />
<glyph unicode="^" d="M114.5 544.5q-3.5 5.5 0.5 14.5l354 813q11 21 29 21h127q17 0 28 -21l357 -813q4 -9 0 -14.5t-13 -5.5h-170q-19 0 -28 20l-236 553h-4l-235 -553q-9 -20 -27 -20h-170q-9 0 -12.5 5.5z" />
<glyph unicode="_" horiz-adv-x="1007" d="M0 -143h1008v-136h-1008v136z" />
<glyph unicode="`" horiz-adv-x="864" d="M235.5 1427q3.5 7 12.5 7h186q25 0 37 -21l152 -256q4 -9 0 -14.5t-13 -5.5h-137q-24 0 -41 20l-194 256q-6 7 -2.5 14z" />
<glyph unicode="a" horiz-adv-x="1071" d="M104 279q0 157 104 235t292 78h200q13 0 13 12v47q0 87 -48.5 125.5t-170.5 38.5q-141 0 -226 -67q-17 -14 -28 4l-76 135q-10 16 4 26q136 97 350 97q224 0 318 -80.5t94 -263.5v-646q0 -20 -21 -20h-172q-20 0 -20 20v72h-2q-37 -53 -107.5 -84t-171.5 -31 q-144 0 -238 77t-94 225zM324 287q0 -123 170 -123q219 0 219 168v76q0 12 -13 12h-163q-110 0 -161.5 -32t-51.5 -101z" />
<glyph unicode="b" horiz-adv-x="1116" d="M150 20v1352q0 21 20 21h188q9 0 15 -6t6 -15v-479h2q81 117 262 117q128 0 216 -60.5t126 -177.5q35 -106 35 -278q0 -173 -35 -279q-38 -117 -126 -177.5t-216 -60.5q-181 0 -262 117h-2v-74q0 -20 -21 -20h-188q-20 0 -20 20zM379 494q0 -121 20 -185 q42 -127 185 -127q140 0 182 127q20 64 20 185q0 120 -20 184q-42 127 -182 127q-143 0 -185 -127q-20 -64 -20 -184z" />
<glyph unicode="c" horiz-adv-x="972" d="M96 494q0 148 31 243q42 131 149.5 202t258.5 71q214 0 342 -154q12 -17 -3 -29l-129 -112q-15 -12 -28 4q-39 44 -81 65t-101 21q-141 0 -185 -129q-20 -61 -20 -182q0 -124 20 -185q21 -62 69.5 -94.5t115.5 -32.5q59 0 101 21t81 65q12 15 28 2l129 -112q14 -11 3 -29 q-129 -152 -342 -152q-151 0 -258.5 71t-149.5 202q-31 95 -31 244z" />
<glyph unicode="d" horiz-adv-x="1116" d="M96 494q0 172 35 278q38 117 126 177.5t216 60.5q181 0 262 -117h2v479q0 9 6 15t15 6h188q9 0 15 -6t6 -15v-1352q0 -20 -21 -20h-188q-21 0 -21 20v74h-2q-81 -117 -262 -117q-128 0 -216 60.5t-126 177.5q-35 106 -35 279zM330 494q0 -121 20 -185q42 -127 182 -127 q143 0 185 127q20 64 20 185q0 120 -20 184q-42 127 -185 127q-140 0 -182 -127q-20 -64 -20 -184z" />
<glyph unicode="e" horiz-adv-x="1067" d="M96 494q0 139 33 243q41 129 148 201t255 72q151 0 257.5 -73t148.5 -200q33 -100 33 -297q0 -20 -23 -20h-608q-12 0 -12 -12q0 -36 14 -76q25 -72 81.5 -111t139.5 -39q145 0 232 94q16 16 30 5l121 -107q15 -12 2 -29q-66 -77 -170 -122.5t-235 -45.5 q-156 0 -263 72.5t-149 202.5q-35 110 -35 242zM328 604q0 -12 12 -12h387q12 0 12 12q0 46 -12 84q-20 60 -71.5 93.5t-120.5 33.5q-71 0 -123 -33.5t-72 -93.5q-12 -38 -12 -84z" />
<glyph unicode="f" horiz-adv-x="671" d="M82 829v138q0 20 20 20h66q12 0 12 12v64q0 169 82 249.5t246 80.5h90q20 0 20 -21v-164q0 -20 -20 -20h-63q-76 0 -100.5 -24t-24.5 -97v-68q0 -12 12 -12h176q20 0 20 -20v-138q0 -20 -20 -20h-176q-12 0 -12 -12v-777q0 -20 -21 -20h-188q-21 0 -21 20v777 q0 12 -12 12h-66q-20 0 -20 20z" />
<glyph unicode="g" horiz-adv-x="1097" d="M92 518q0 150 33 250q38 118 124.5 180t211.5 62q183 0 256 -117h2v74q0 20 20 20h189q20 0 20 -20v-906q0 -215 -118 -333.5t-343 -118.5q-104 0 -203 40t-155 107q-12 15 2 29l121 121q16 16 31 0q95 -92 215 -92q221 0 221 235v92h-2q-73 -114 -256 -114 q-125 0 -211.5 61t-124.5 178q-33 100 -33 252zM324 518q0 -100 22 -162q42 -127 174 -127q134 0 176 127q23 65 23 162q0 94 -23 162q-42 125 -176 125q-132 0 -174 -125q-22 -65 -22 -162z" />
<glyph unicode="h" horiz-adv-x="1122" d="M150 20v1352q0 21 20 21h188q9 0 15 -6t6 -15v-477h2q35 50 101.5 82.5t158.5 32.5q156 0 249 -103t93 -264v-623q0 -20 -20 -20h-189q-20 0 -20 20v570q0 98 -48.5 156.5t-138.5 58.5q-88 0 -138 -59t-50 -156v-570q0 -20 -21 -20h-188q-20 0 -20 20z" />
<glyph unicode="i" horiz-adv-x="528" d="M150 20v947q0 20 20 20h188q21 0 21 -20v-947q0 -20 -21 -20h-188q-20 0 -20 20zM150 1194v178q0 21 20 21h188q9 0 15 -6t6 -15v-178q0 -20 -21 -20h-188q-20 0 -20 20z" />
<glyph unicode="j" horiz-adv-x="528" d="M-31 -184q0 20 21 20h45q63 0 89 25.5t26 91.5v1014q0 20 20 20h188q21 0 21 -20v-1010q0 -167 -84 -246.5t-248 -79.5h-57q-9 0 -15 6t-6 15v164zM150 1194v178q0 21 20 21h188q9 0 15 -6t6 -15v-178q0 -20 -21 -20h-188q-20 0 -20 20z" />
<glyph unicode="k" horiz-adv-x="1069" d="M150 20v1352q0 21 20 21h188q9 0 15 -6t6 -15v-803l338 398q17 20 39 20h209q9 0 11.5 -7t-3.5 -13l-314 -361l361 -586q5 -6 2 -13t-12 -7h-215q-22 0 -33 20l-250 414l-133 -153v-261q0 -20 -21 -20h-188q-20 0 -20 20z" />
<glyph unicode="l" horiz-adv-x="595" d="M145 270v1102q0 9 6 15t15 6h188q9 0 15 -6t6 -15v-1089q0 -50 20.5 -70t65.5 -20h45q20 0 20 -21v-164q0 -20 -20 -20h-90q-143 0 -207 68.5t-64 213.5z" />
<glyph unicode="m" horiz-adv-x="1726" d="M150 20v947q0 20 20 20h188q21 0 21 -20v-72h2q35 50 101.5 82.5t158.5 32.5q178 0 270 -131h2q121 131 316 131q168 0 263 -102t95 -265v-623q0 -20 -20 -20h-189q-20 0 -20 20v570q0 98 -48.5 156.5t-138.5 58.5q-88 0 -138 -59t-50 -156v-570q0 -20 -20 -20h-189 q-20 0 -20 20v570q0 98 -48.5 156.5t-138.5 58.5q-88 0 -138 -59t-50 -156v-570q0 -20 -21 -20h-188q-20 0 -20 20z" />
<glyph unicode="n" horiz-adv-x="1122" d="M150 20v947q0 20 20 20h188q21 0 21 -20v-72h2q35 50 101.5 82.5t158.5 32.5q156 0 249 -103t93 -264v-623q0 -20 -20 -20h-189q-20 0 -20 20v570q0 98 -48.5 156.5t-138.5 58.5q-88 0 -138 -59t-50 -156v-570q0 -20 -21 -20h-188q-20 0 -20 20z" />
<glyph unicode="o" horiz-adv-x="1071" d="M96 494q0 143 33 243q41 129 149 201t259 72q149 0 256.5 -72t148.5 -201q33 -100 33 -243q0 -144 -33 -244q-41 -129 -148.5 -201t-256.5 -72q-151 0 -259 72t-149 201q-33 100 -33 244zM330 494q0 -119 20 -183q22 -62 70 -95.5t117 -33.5q138 0 184 129q20 64 20 183 q0 116 -20 182q-46 129 -184 129q-69 0 -117 -33.5t-70 -95.5q-20 -66 -20 -182z" />
<glyph unicode="p" horiz-adv-x="1116" d="M150 -348v1315q0 20 20 20h188q21 0 21 -20v-74h2q81 117 262 117q128 0 216 -60.5t126 -177.5q35 -106 35 -278q0 -173 -35 -279q-38 -117 -126 -177.5t-216 -60.5q-181 0 -262 117h-2v-442q0 -9 -6 -15t-15 -6h-188q-20 0 -20 21zM379 494q0 -121 20 -185 q42 -127 185 -127q140 0 182 127q20 64 20 185q0 120 -20 184q-42 127 -182 127q-143 0 -185 -127q-20 -64 -20 -184z" />
<glyph unicode="q" horiz-adv-x="1116" d="M96 494q0 172 35 278q38 117 126 177.5t216 60.5q181 0 262 -117h2v74q0 20 21 20h188q21 0 21 -20v-1315q0 -9 -6 -15t-15 -6h-188q-9 0 -15 6t-6 15v442h-2q-81 -117 -262 -117q-128 0 -216 60.5t-126 177.5q-35 106 -35 279zM330 494q0 -121 20 -185q42 -127 182 -127 q143 0 185 127q20 64 20 185q0 120 -20 184q-42 127 -185 127q-140 0 -182 -127q-20 -64 -20 -184z" />
<glyph unicode="r" horiz-adv-x="866" d="M150 20v947q0 20 20 20h188q21 0 21 -20v-84h2q79 127 256 127q58 0 113.5 -22t93.5 -60q15 -15 4 -29l-109 -137q-13 -16 -28 -4q-73 47 -146 47q-186 0 -186 -250v-535q0 -20 -21 -20h-188q-20 0 -20 20z" />
<glyph unicode="s" horiz-adv-x="1019" d="M90 133q-14 15 0 29l117 123q6 6 14.5 6t14.5 -6q55 -50 134 -81.5t154 -31.5q88 0 135.5 32t47.5 85q0 47 -36 73t-128 35l-107 11q-150 15 -226.5 89t-76.5 201q0 144 100.5 228t282.5 84q219 0 371 -121q16 -13 4 -29l-100 -121q-12 -14 -29 -4q-49 35 -119 58.5 t-139 23.5q-72 0 -111 -28t-39 -74q0 -45 35.5 -70.5t126.5 -34.5l107 -10q152 -15 228.5 -90t76.5 -199q0 -152 -108 -243t-306 -91q-256 0 -424 156z" />
<glyph unicode="t" horiz-adv-x="657" d="M66 829v138q0 20 20 20h66q12 0 12 12v271q0 20 20 20h189q20 0 20 -20v-271q0 -12 13 -12h131q20 0 20 -20v-138q0 -20 -20 -20h-131q-13 0 -13 -12v-512q0 -51 21.5 -71.5t70.5 -20.5h52q20 0 20 -21v-164q0 -20 -20 -20h-99q-146 0 -210 70t-64 218v521q0 12 -12 12 h-66q-20 0 -20 20z" />
<glyph unicode="u" horiz-adv-x="1114" d="M137 344v623q0 20 21 20h188q21 0 21 -20v-570q0 -99 46.5 -157t137.5 -58q86 0 135 58.5t49 154.5v572q0 20 21 20h188q21 0 21 -20v-947q0 -20 -21 -20h-188q-21 0 -21 20v72h-2q-90 -115 -256 -115q-156 0 -248 103t-92 264z" />
<glyph unicode="v" horiz-adv-x="995" d="M41 967q-3 9 2 14.5t14 5.5h201q18 0 25 -20l217 -641h4l213 641q7 20 24 20h197q9 0 14 -5.5t2 -14.5l-348 -947q-7 -20 -26 -20h-164q-20 0 -27 20z" />
<glyph unicode="w" horiz-adv-x="1542" d="M49 967q-3 9 1 14.5t13 5.5h197q21 0 27 -20l190 -652h4l189 652q7 20 26 20h148q19 0 26 -20l201 -652h4l180 652q6 20 27 20h197q9 0 13 -5.5t1 -14.5l-311 -947q-7 -20 -25 -20h-168q-17 0 -24 20l-191 631h-4l-192 -631q-7 -20 -25 -20h-168q-18 0 -25 20z" />
<glyph unicode="x" horiz-adv-x="1013" d="M46 6q-4 6 1 14l334 492l-309 455q-5 7 -1 13.5t17 6.5h205q23 0 35 -20l178 -267h2l180 267q14 20 33 20h205q13 0 17 -6.5t-1 -13.5l-309 -455l334 -492q5 -8 0.5 -14t-17.5 -6h-205q-18 0 -32 20l-205 302h-2l-205 -302q-14 -20 -35 -20h-203q-13 0 -17 6z" />
<glyph unicode="y" horiz-adv-x="993" d="M37 967q-3 9 2 14.5t14 5.5h203q18 0 25 -20l223 -645h4l213 645q7 20 24 20h195q9 0 14 -5.5t2 -14.5l-376 -1028q-64 -174 -136.5 -241t-195.5 -67h-64q-20 0 -20 21v164q0 20 20 20h37q57 0 90.5 27t57.5 90l28 84z" />
<glyph unicode="z" horiz-adv-x="993" d="M106 20v150q0 10 7 20l503 592v4h-462q-9 0 -15 6t-6 15v160q0 20 21 20h712q21 0 21 -20v-160q0 -12 -6 -21l-498 -581v-4h483q9 0 15 -6t6 -15v-160q0 -20 -21 -20h-739q-21 0 -21 20z" />
<glyph unicode="{" horiz-adv-x="708" d="M104 596v162q0 20 21 20q71 0 105 39t34 119v334q0 119 64 182.5t180 63.5h119q20 0 20 -21v-135q0 -21 -20 -21h-64q-88 0 -88 -86v-323q0 -114 -32 -169.5t-111 -82.5v-2q79 -27 111 -82.5t32 -169.5v-334q0 -86 88 -86h64q20 0 20 -20v-136q0 -20 -20 -20h-119 q-116 0 -180 63.5t-64 182.5v344q0 80 -33.5 118.5t-105.5 38.5q-9 0 -15 6t-6 15z" />
<glyph unicode="|" horiz-adv-x="675" d="M244 -152v1647q0 21 20 21h148q20 0 20 -21v-1647q0 -20 -20 -20h-148q-20 0 -20 20z" />
<glyph unicode="}" horiz-adv-x="708" d="M63 -16q0 20 21 20h63q86 0 86 86v334q0 114 33.5 169.5t112.5 82.5v2q-79 27 -112.5 82.5t-33.5 169.5v323q0 86 -86 86h-63q-9 0 -15 6t-6 15v135q0 9 6 15t15 6h117q117 0 180 -63t63 -183v-334q0 -158 140 -158q20 0 20 -20v-162q0 -21 -20 -21q-72 0 -106 -38.5 t-34 -118.5v-344q0 -120 -63 -183t-180 -63h-117q-21 0 -21 20v136z" />
<glyph unicode="~" d="M100 520q41 92 118 145.5t169 53.5q98 0 215 -72q83 -51 135 -51q49 0 82 25t62 77q10 17 30 4l107 -63q14 -10 6 -29q-41 -93 -118.5 -146.5t-170.5 -53.5q-94 0 -213 73q-84 52 -137 52q-48 0 -79.5 -25t-61.5 -78q-11 -18 -31 -4l-107 64q-14 9 -6 28z" />
<glyph unicode="&#xa1;" horiz-adv-x="628" d="M186 -385l47 963q0 20 21 20h121q20 0 20 -20l47 -963q0 -21 -20 -21h-215q-9 0 -15 6t-6 15zM193 758v209q0 20 20 20h205q20 0 20 -20v-209q0 -21 -20 -21h-205q-20 0 -20 21z" />
<glyph unicode="&#xa2;" d="M164 494q0 148 31 243q38 118 130.5 187.5t227.5 81.5v163q0 21 20 21h70q9 0 15 -6t6 -15v-161q192 -17 301 -152q13 -17 -2 -29l-127 -112q-16 -13 -29 4q-33 37 -65.5 56.5t-77.5 25.5v-617q78 12 143 84q12 15 29 2l127 -112q13 -10 2 -29q-109 -132 -301 -149v-162 q0 -9 -6 -15t-15 -6h-70q-20 0 -20 21v164q-136 12 -228 80.5t-130 187.5q-31 95 -31 244zM397 494q0 -121 21 -185q30 -102 135 -123v613q-105 -21 -135 -123q-21 -64 -21 -182z" />
<glyph unicode="&#xa3;" d="M143 584v131q0 20 21 20h96q12 0 12 13v282q0 182 97 283.5t264 101.5q135 0 225 -71t115 -187q3 -18 -19 -22l-180 -43q-19 -3 -22 16q-8 43 -39 72.5t-82 29.5q-60 0 -92.5 -38.5t-32.5 -104.5v-319q0 -13 12 -13h244q20 0 20 -20v-131q0 -21 -20 -21h-244 q-12 0 -12 -12v-121q0 -150 -47 -221v-4h495q9 0 15 -6t6 -15v-164q0 -20 -21 -20h-739q-20 0 -20 20v160q0 15 10 25q36 36 51.5 71.5t15.5 114.5v160q0 12 -12 12h-96q-9 0 -15 6t-6 15z" />
<glyph unicode="&#xa4;" d="M84 299q-14 15 0 29l119 121q-56 98 -56 213q0 119 58 215l-121 122q-13 13 0 29l109 111q16 12 28 0l121 -121q100 59 219 59t219 -59l121 121q6 6 14.5 6t14.5 -6l108 -111q13 -16 0 -29l-120 -120q59 -100 59 -217q0 -119 -57 -216l120 -120q13 -13 0 -29l-108 -111 q-14 -14 -29 0l-121 121q-99 -61 -221 -61t-221 61l-119 -119q-12 -12 -28 0zM334 662q0 -101 64 -168.5t163 -67.5t164.5 68t65.5 168t-65.5 167.5t-164.5 67.5t-163 -67t-64 -168z" />
<glyph unicode="&#xa5;" d="M78 1372q-3 8 1 14.5t13 6.5h201q19 0 26 -21l242 -569h6l238 569q7 21 26 21h199q9 0 13 -6.5t1 -14.5l-309 -659v-4h201q20 0 20 -21v-119q0 -20 -20 -20h-248q-12 0 -12 -12v-84q0 -13 12 -13h248q20 0 20 -20v-119q0 -20 -20 -20h-248q-12 0 -12 -13v-248 q0 -20 -21 -20h-188q-21 0 -21 20v248q0 13 -12 13h-250q-20 0 -20 20v119q0 20 20 20h250q12 0 12 13v84q0 12 -12 12h-250q-20 0 -20 20v119q0 21 20 21h203v4z" />
<glyph unicode="&#xa6;" horiz-adv-x="675" d="M244 -152v689q0 20 20 20h148q20 0 20 -20v-689q0 -20 -20 -20h-148q-20 0 -20 20zM244 815v680q0 21 20 21h148q20 0 20 -21v-680q0 -20 -20 -20h-148q-20 0 -20 20z" />
<glyph unicode="&#xa7;" horiz-adv-x="1185" d="M190 516q0 109 52 195.5t139 126.5v2q-75 43 -107 104.5t-32 149.5q0 134 100 227.5t256 93.5q86 0 154.5 -24t111 -64.5t66 -89.5t26.5 -102q0 -18 -14 -21l-166 -35q-8 -2 -14 3t-6 12q-8 62 -47 99.5t-107 37.5t-107.5 -36.5t-39.5 -100.5q0 -77 53.5 -120.5 t183.5 -76.5q303 -78 303 -381q0 -109 -54 -197t-136 -124v-2q81 -43 114 -106t33 -165q0 -132 -101.5 -222.5t-262.5 -90.5q-168 0 -260 77.5t-105 200.5q-2 8 2 15t11 8l167 35q17 3 21 -15q18 -137 160 -137q75 0 115 38t40 101q0 78 -54 124.5t-189 78.5 q-306 73 -306 381zM403 516q0 -94 51.5 -145.5t139.5 -51.5q86 0 137 51.5t51 145.5t-51 145.5t-137 51.5q-88 0 -139.5 -51.5t-51.5 -145.5z" />
<glyph unicode="&#xa8;" horiz-adv-x="864" d="M133 1194v178q0 9 6 15t15 6h157q9 0 15 -6t6 -15v-178q0 -20 -21 -20h-157q-21 0 -21 20zM535 1194v178q0 21 20 21h158q20 0 20 -21v-178q0 -20 -20 -20h-158q-20 0 -20 20z" />
<glyph unicode="&#xa9;" horiz-adv-x="1691" d="M127 696q0 200 94.5 365t259.5 259.5t365 94.5t365 -94.5t259.5 -259.5t94.5 -365t-94.5 -365t-259.5 -259.5t-365 -94.5t-365 94.5t-259.5 259.5t-94.5 365zM291 696q0 -242 159 -402.5t396 -160.5t396 160.5t159 402.5t-159 403t-396 161t-396 -161t-159 -403zM516 696 q0 108 23 183q35 108 120 164.5t209 56.5q83 0 152.5 -30.5t114.5 -84.5q15 -15 -2 -29l-95 -84q-13 -13 -28 2q-32 35 -64 51.5t-76 16.5q-122 0 -161 -111q-13 -41 -13 -135t13 -135q38 -110 161 -110q44 0 76 16t64 51q15 15 28 2l95 -84q17 -13 2 -28 q-45 -54 -114.5 -84.5t-152.5 -30.5q-124 0 -209 56.5t-120 164.5q-23 75 -23 182z" />
<glyph unicode="&#xaa;" horiz-adv-x="710" d="M70 969q0 98 66.5 148t191.5 50h108q13 0 13 13v14q0 32 -28.5 47.5t-96.5 15.5q-76 0 -134 -30q-18 -11 -28 6l-56 96q-11 18 7 29q85 51 233 51q154 0 216.5 -50t62.5 -161v-375q0 -20 -21 -20h-131q-20 0 -20 20v27h-4q-54 -57 -170 -57q-89 0 -149 45t-60 131z M244 985q0 -53 84 -53q63 0 92 19.5t29 64.5v14q0 12 -13 12h-94q-98 0 -98 -57z" />
<glyph unicode="&#xab;" horiz-adv-x="1110" d="M72 526q-14 14 0 29l417 420q6 6 13.5 3.5t7.5 -11.5v-197q0 -22 -21 -43l-178 -178q-9 -9 0 -17l178 -178q21 -21 21 -43v-196q0 -9 -7.5 -12t-13.5 3zM531 540.5q0 8.5 6 14.5l417 420q6 6 13.5 3.5t7.5 -11.5v-197q0 -22 -21 -43l-178 -178q-8 -9 0 -17l178 -178 q21 -21 21 -43v-196q0 -9 -7.5 -12t-13.5 3l-417 420q-6 6 -6 14.5z" />
<glyph unicode="&#xac;" d="M113 485v160q0 21 20 21h858q9 0 15 -6t6 -15v-436q0 -9 -6 -15t-15 -6h-166q-20 0 -20 21v244q0 12 -12 12h-660q-20 0 -20 20z" />
<glyph unicode="&#xad;" horiz-adv-x="788" d="M92 463v162q0 20 21 20h563q20 0 20 -20v-162q0 -21 -20 -21h-563q-9 0 -15 6t-6 15z" />
<glyph unicode="&#xae;" horiz-adv-x="915" d="M66 1010q0 165 113 278t278 113t278 -113t113 -278q0 -166 -113 -280t-278 -114t-278 114t-113 280zM150 1010q0 -135 88 -224.5t219 -89.5t219 89.5t88 224.5q0 133 -88 222t-219 89t-219 -89t-88 -222zM295 809v405q0 15 14 15h170q76 0 118 -34.5t42 -98.5 q0 -91 -82 -123l86 -164q7 -14 -10 -14h-74q-12 0 -18 14l-80 152h-60q-8 0 -8 -9v-143q0 -14 -14 -14h-70q-14 0 -14 14zM393 1055q0 -8 8 -8h78q66 0 66 49t-66 49h-78q-8 0 -8 -8v-82z" />
<glyph unicode="&#xaf;" horiz-adv-x="864" d="M141 1223v125q0 20 21 20h538q21 0 21 -20v-125q0 -9 -6 -15t-15 -6h-538q-9 0 -15 6t-6 15z" />
<glyph unicode="&#xb0;" horiz-adv-x="952" d="M174 1112q0 129 86.5 216t216.5 87q128 0 214.5 -87t86.5 -216t-86.5 -216t-214.5 -87q-130 0 -216.5 87t-86.5 216zM313 1112q0 -73 46.5 -121.5t117.5 -48.5q70 0 116 49t46 121q0 74 -46 122t-116 48q-72 0 -118 -48t-46 -122z" />
<glyph unicode="&#xb1;" d="M113 20v162q0 21 20 21h858q9 0 15 -6t6 -15v-162q0 -20 -21 -20h-858q-20 0 -20 20zM113 690v160q0 20 20 20h313q13 0 13 13v315q0 21 20 21h166q9 0 15 -6t6 -15v-315q0 -13 12 -13h313q21 0 21 -20v-160q0 -20 -21 -20h-313q-12 0 -12 -13v-315q0 -20 -21 -20h-166 q-20 0 -20 20v315q0 13 -13 13h-313q-20 0 -20 20z" />
<glyph unicode="&#xb2;" horiz-adv-x="714" d="M86 901v117q0 17 12 29l295 323q56 60 56 113q0 40 -24 64t-65 24q-85 0 -100 -86q-3 -20 -22 -17l-134 29q-19 3 -16 23q4 33 22.5 68t51 67.5t85 53t115.5 20.5q120 0 193.5 -70t73.5 -176t-90 -205l-224 -238v-2h293q21 0 21 -20v-117q0 -20 -21 -20h-502 q-20 0 -20 20z" />
<glyph unicode="&#xb3;" horiz-adv-x="714" d="M74 1051q-4 23 14 26l131 33q16 3 25 -16q14 -31 43.5 -51.5t68.5 -20.5q47 0 77 28t30 74q0 47 -31 75t-86 28h-41q-20 0 -20 20v117q0 20 20 20h31q50 0 78 24.5t28 68.5q0 45 -24.5 69.5t-69.5 24.5q-69 0 -98 -60q-8 -15 -27 -12l-123 29q-18 3 -14 24q20 77 90 127 t176 50q127 0 199 -65t72 -173q0 -103 -84 -170v-2q38 -15 71 -68.5t33 -122.5q0 -121 -77 -192.5t-206 -71.5q-110 0 -187 46.5t-99 140.5z" />
<glyph unicode="&#xb4;" horiz-adv-x="864" d="M239.5 1142.5q-3.5 5.5 0.5 14.5l153 256q12 21 37 21h186q9 0 13 -7t-2 -14l-195 -256q-17 -20 -41 -20h-139q-9 0 -12.5 5.5z" />
<glyph unicode="&#xb5;" horiz-adv-x="1126" d="M150 -348v1315q0 20 20 20h188q21 0 21 -20v-572q0 -100 46.5 -156.5t137.5 -56.5q88 0 136.5 57.5t48.5 155.5v572q0 20 20 20h188q21 0 21 -20v-947q0 -20 -21 -20h-188q-20 0 -20 20v80h-3q-28 -53 -86 -88t-135 -35q-95 0 -141 50h-4v-375q0 -9 -6 -15t-15 -6h-188 q-20 0 -20 21z" />
<glyph unicode="&#xb6;" horiz-adv-x="1298" d="M147 961q0 186 123.5 309t337.5 123h492q20 0 20 -21v-1720q0 -21 -20 -21h-158q-20 0 -20 21v1536q0 12 -13 12h-145q-12 0 -12 -12v-1536q0 -9 -6 -15t-15 -6h-158q-20 0 -20 21v876q-182 10 -294 132.5t-112 300.5z" />
<glyph unicode="&#xb7;" horiz-adv-x="516" d="M135 438v209q0 9 6 15t15 6h204q9 0 15 -6t6 -15v-209q0 -20 -21 -20h-204q-21 0 -21 20z" />
<glyph unicode="&#xb8;" horiz-adv-x="864" d="M285 -297l121 297q9 20 26 20h139q9 0 13.5 -5.5t1.5 -14.5l-94 -297q-6 -20 -33 -20h-160q-9 0 -13 5.5t-1 14.5z" />
<glyph unicode="&#xb9;" horiz-adv-x="714" d="M166 1434v147q0 20 16 31l127 86q20 14 35 14h133q21 0 21 -20v-791q0 -20 -21 -20h-137q-21 0 -21 20v602h-4l-129 -84q-7 -4 -13.5 1t-6.5 14z" />
<glyph unicode="&#xba;" horiz-adv-x="729" d="M66 1098q0 80 18 133q57 178 281 178q223 0 280 -178q19 -55 19 -133t-19 -133q-58 -179 -280 -179q-223 0 -281 179q-18 52 -18 133zM254 1098q0 -44 10 -82q24 -68 101 -68q74 0 98 68q10 38 10 82t-10 82q-24 67 -98 67q-77 0 -101 -67q-10 -38 -10 -82z" />
<glyph unicode="&#xbb;" horiz-adv-x="1110" d="M135 115v196q0 22 21 43l178 178q8 8 0 17l-178 178q-21 21 -21 43v197q0 9 7.5 11.5t13.5 -3.5l417 -420q6 -6 6 -14.5t-6 -14.5l-417 -420q-6 -6 -13.5 -3t-7.5 12zM600 115v196q0 22 21 43l178 178q9 8 0 17l-178 178q-21 21 -21 43v197q0 9 7.5 11.5t13.5 -3.5 l417 -420q14 -15 0 -29l-417 -420q-6 -6 -13.5 -3t-7.5 12z" />
<glyph unicode="&#xbc;" horiz-adv-x="1722" d="M186 1114v148q0 19 17 30l127 86q21 15 35 15h133q20 0 20 -21v-790q0 -21 -20 -21h-138q-20 0 -20 21v602h-4l-129 -84q-7 -4 -14 0.5t-7 13.5zM342 -16.5q-3 6.5 2 14.5l809 1397q11 20 33 20h133q9 0 13 -6.5t-1 -13.5l-809 -1397q-12 -21 -33 -21h-135q-9 0 -12 6.5z M932 143v113q0 18 8 31l254 524q10 20 29 20h147q9 0 12.5 -5.5t-0.5 -14.5l-249 -532v-3h151q12 0 12 13v168q0 20 21 20h131q20 0 20 -20v-168q0 -13 13 -13h35q20 0 20 -20v-113q0 -20 -20 -20h-35q-13 0 -13 -12v-91q0 -20 -20 -20h-131q-21 0 -21 20v91q0 12 -12 12 h-332q-20 0 -20 20z" />
<glyph unicode="&#xbd;" horiz-adv-x="1804" d="M186 1114v148q0 19 17 30l127 86q21 15 35 15h133q20 0 20 -21v-790q0 -21 -20 -21h-138q-20 0 -20 21v602h-4l-129 -84q-7 -4 -14 0.5t-7 13.5zM342 -16.5q-3 6.5 2 14.5l809 1397q11 20 33 20h133q9 0 13 -6.5t-1 -13.5l-809 -1397q-12 -21 -33 -21h-135q-9 0 -12 6.5z M1075 20v117q0 17 12 29l295 323q56 60 56 113q0 40 -23.5 64t-64.5 24q-86 0 -101 -86q-3 -19 -22 -16l-133 28q-20 3 -17 23q4 33 23 68t51 67.5t85 53t116 20.5q119 0 192.5 -70t73.5 -176t-90 -205l-223 -237v-2h292q9 0 15 -6t6 -15v-117q0 -20 -21 -20h-501 q-21 0 -21 20z" />
<glyph unicode="&#xbe;" horiz-adv-x="1871" d="M186 731q-4 24 15 27l131 33q14 2 24 -17q14 -31 44 -51.5t69 -20.5q47 0 76.5 28.5t29.5 74.5t-30.5 74t-85.5 28h-41q-9 0 -15 6t-6 15v116q0 9 6 15t15 6h31q50 0 78 24t28 68q0 45 -24.5 69.5t-69.5 24.5q-70 0 -99 -59q-8 -15 -26 -12l-123 28q-18 3 -14 25 q20 77 90 126.5t176 49.5q127 0 198.5 -65t71.5 -173q0 -103 -84 -170v-2q39 -15 72 -68t33 -122q0 -121 -77 -192.5t-206 -71.5q-110 0 -187.5 46t-99.5 140zM496 -16.5q-3 6.5 2 14.5l809 1397q11 20 32 20h134q9 0 13 -6.5t-1 -13.5l-809 -1397q-12 -21 -33 -21h-135 q-9 0 -12 6.5zM1081 143v113q0 16 9 31l253 524q10 20 29 20h148q9 0 12.5 -5.5t-0.5 -14.5l-250 -532v-3h152q12 0 12 13v168q0 20 20 20h131q21 0 21 -20v-168q0 -13 12 -13h35q21 0 21 -20v-113q0 -20 -21 -20h-35q-12 0 -12 -12v-91q0 -20 -21 -20h-131q-20 0 -20 20v91 q0 12 -12 12h-332q-21 0 -21 20z" />
<glyph unicode="&#xbf;" horiz-adv-x="950" d="M90 -72q0 128 84 240l162 221q24 30 32.5 57t8.5 72v60q0 20 20 20h191q20 0 20 -20v-84q0 -59 -12 -97t-41 -78l-162 -221q-69 -93 -69 -168q0 -67 43.5 -110t115.5 -43q71 0 115.5 42.5t58.5 121.5q3 19 23 16l184 -29q21 -3 17 -24q-25 -155 -132 -243.5t-274 -88.5 q-169 0 -277 99.5t-108 256.5zM371 758v209q0 20 20 20h205q20 0 20 -20v-209q0 -21 -20 -21h-205q-20 0 -20 21z" />
<glyph unicode="&#xc0;" horiz-adv-x="1263" d="M37 20l477 1352q7 21 27 21h188q20 0 27 -21l471 -1352q7 -20 -15 -20h-200q-21 0 -27 20l-92 271h-524l-93 -271q-6 -20 -26 -20h-199q-21 0 -14 20zM275 1812.5q3 6.5 12 6.5h200q21 0 39 -21l183 -219q6 -7 3 -13.5t-12 -6.5h-147q-21 0 -37 16l-237 223q-7 8 -4 14.5 zM442 506h377l-184 541h-6z" />
<glyph unicode="&#xc1;" horiz-adv-x="1263" d="M37 20l477 1352q7 21 27 21h188q20 0 27 -21l471 -1352q7 -20 -15 -20h-200q-21 0 -27 20l-92 271h-524l-93 -271q-6 -20 -26 -20h-199q-21 0 -14 20zM442 506h377l-184 541h-6zM553.5 1565.5q-2.5 6.5 3.5 13.5l180 219q17 21 39 21h201q9 0 13 -6.5t-3 -14.5l-239 -223 q-16 -16 -37 -16h-146q-9 0 -11.5 6.5z" />
<glyph unicode="&#xc2;" horiz-adv-x="1263" d="M37 20l477 1352q7 21 27 21h188q20 0 27 -21l471 -1352q7 -20 -15 -20h-200q-21 0 -27 20l-92 271h-524l-93 -271q-6 -20 -26 -20h-199q-21 0 -14 20zM328.5 1549q-2.5 7 3.5 14l200 256q14 20 37 20h123q23 0 37 -20l201 -256q6 -7 3.5 -14t-11.5 -7h-129q-22 0 -43 21 l-117 120h-4l-117 -120q-21 -21 -43 -21h-129q-9 0 -11.5 7zM442 506h377l-184 541h-6z" />
<glyph unicode="&#xc3;" horiz-adv-x="1263" d="M37 20l477 1352q7 21 27 21h188q20 0 27 -21l471 -1352q7 -20 -15 -20h-200q-21 0 -27 20l-92 271h-524l-93 -271q-6 -20 -26 -20h-199q-21 0 -14 20zM344 1569v125q0 20 16 39q66 69 148 69q60 0 137 -41q66 -37 117 -37q27 0 52.5 10t41.5 21.5t41 32.5q7 6 12.5 4 t5.5 -8v-125q0 -20 -16 -39q-67 -70 -147 -70q-61 0 -138 41q-66 37 -114 37q-40 0 -71 -16t-67 -47q-8 -6 -13 -4t-5 8zM442 506h377l-184 541h-6z" />
<glyph unicode="&#xc4;" horiz-adv-x="1263" d="M37 20l477 1352q7 21 27 21h188q20 0 27 -21l471 -1352q7 -20 -15 -20h-200q-21 0 -27 20l-92 271h-524l-93 -271q-6 -20 -26 -20h-199q-21 0 -14 20zM330 1595v179q0 20 20 20h150q20 0 20 -20v-179q0 -20 -20 -20h-150q-20 0 -20 20zM442 506h377l-184 541h-6z M739 1595v179q0 20 21 20h149q21 0 21 -20v-179q0 -20 -21 -20h-149q-21 0 -21 20z" />
<glyph unicode="&#xc5;" horiz-adv-x="1263" d="M37 20l477 1352q7 21 27 21h188q20 0 27 -21l471 -1352q7 -20 -15 -20h-200q-21 0 -27 20l-92 271h-524l-93 -271q-6 -20 -26 -20h-199q-21 0 -14 20zM428 1679q0 88 57.5 146.5t145.5 58.5t145.5 -58.5t57.5 -146.5t-57.5 -145t-145.5 -57t-145.5 57t-57.5 145zM442 506 h377l-184 541h-6zM530 1679q0 -44 29 -74t72 -30t71.5 30t28.5 74t-28.5 74.5t-71.5 30.5t-72 -30.5t-29 -74.5z" />
<glyph unicode="&#xc6;" horiz-adv-x="1896" d="M38.5 5.5q-3.5 5.5 0.5 14.5l684 1352q11 21 29 21h1024q20 0 20 -21v-176q0 -20 -20 -20h-639q-13 0 -13 -13v-340q0 -12 13 -12h538q21 0 21 -20v-177q0 -20 -21 -20h-538q-13 0 -13 -12v-353q0 -12 13 -12h639q20 0 20 -20v-177q0 -20 -20 -20h-873q-20 0 -20 20v259 q0 12 -13 12h-428l-133 -271q-9 -20 -26 -20h-230q-11 0 -14.5 5.5zM549 506h321q13 0 13 12v658h-4z" />
<glyph unicode="&#xc7;" horiz-adv-x="1177" d="M113 696q0 163 7.5 237t29.5 140q53 168 178.5 255t304.5 87q165 0 287.5 -79.5t183.5 -219.5q7 -17 -10 -24l-174 -84q-19 -10 -27 10q-83 180 -260 180q-186 0 -250 -184q-14 -45 -19.5 -108t-5.5 -210t5.5 -209.5t19.5 -107.5q64 -184 250 -184q177 0 260 180 q8 20 27 10l174 -84q17 -7 10 -25q-53 -122 -153.5 -198t-239.5 -96l-88 -279q-6 -20 -33 -20h-160q-9 0 -13 5.5t-1 14.5l112 281q-292 56 -378 335q-22 66 -29.5 140t-7.5 237z" />
<glyph unicode="&#xc8;" horiz-adv-x="1167" d="M154 20v1352q0 21 20 21h873q20 0 20 -21v-176q0 -20 -20 -20h-639q-13 0 -13 -13v-340q0 -12 13 -12h538q21 0 21 -20v-177q0 -20 -21 -20h-538q-13 0 -13 -12v-353q0 -12 13 -12h639q20 0 20 -20v-177q0 -20 -20 -20h-873q-20 0 -20 20zM299 1812.5q3 6.5 12 6.5h201 q22 0 39 -21l182 -219q6 -7 3.5 -13.5t-11.5 -6.5h-147q-21 0 -37 16l-238 223q-7 8 -4 14.5z" />
<glyph unicode="&#xc9;" horiz-adv-x="1167" d="M154 20v1352q0 21 20 21h873q20 0 20 -21v-176q0 -20 -20 -20h-639q-13 0 -13 -13v-340q0 -12 13 -12h538q21 0 21 -20v-177q0 -20 -21 -20h-538q-13 0 -13 -12v-353q0 -12 13 -12h639q20 0 20 -20v-177q0 -20 -20 -20h-873q-20 0 -20 20zM465.5 1565.5 q-2.5 6.5 3.5 13.5l180 219q17 21 39 21h201q9 0 13 -6.5t-3 -14.5l-240 -223q-16 -16 -36 -16h-146q-9 0 -11.5 6.5z" />
<glyph unicode="&#xca;" horiz-adv-x="1167" d="M154 20v1352q0 21 20 21h873q20 0 20 -21v-176q0 -20 -20 -20h-639q-13 0 -13 -13v-340q0 -12 13 -12h538q21 0 21 -20v-177q0 -20 -21 -20h-538q-13 0 -13 -12v-353q0 -12 13 -12h639q20 0 20 -20v-177q0 -20 -20 -20h-873q-20 0 -20 20zM310 1549q-3 7 3 14l201 256 q14 20 37 20h123q23 0 37 -20l200 -256q6 -7 3.5 -14t-11.5 -7h-129q-22 0 -43 21l-117 120h-4l-116 -120q-21 -21 -43 -21h-129q-9 0 -12 7z" />
<glyph unicode="&#xcb;" horiz-adv-x="1167" d="M154 20v1352q0 21 20 21h873q20 0 20 -21v-176q0 -20 -20 -20h-639q-13 0 -13 -13v-340q0 -12 13 -12h538q21 0 21 -20v-177q0 -20 -21 -20h-538q-13 0 -13 -12v-353q0 -12 13 -12h639q20 0 20 -20v-177q0 -20 -20 -20h-873q-20 0 -20 20zM307 1595v179q0 20 21 20h149 q21 0 21 -20v-179q0 -20 -21 -20h-149q-21 0 -21 20zM717 1595v179q0 20 20 20h150q20 0 20 -20v-179q0 -20 -20 -20h-150q-20 0 -20 20z" />
<glyph unicode="&#xcc;" horiz-adv-x="548" d="M-80 1812.5q3 6.5 12 6.5h201q21 0 39 -21l182 -219q6 -7 3.5 -13.5t-11.5 -6.5h-147q-21 0 -37 16l-238 223q-7 8 -4 14.5zM154 20v1352q0 21 20 21h201q20 0 20 -21v-1352q0 -20 -20 -20h-201q-20 0 -20 20z" />
<glyph unicode="&#xcd;" horiz-adv-x="548" d="M154 20v1352q0 21 20 21h201q20 0 20 -21v-1352q0 -20 -20 -20h-201q-20 0 -20 20zM197.5 1565.5q-2.5 6.5 3.5 13.5l180 219q18 21 39 21h201q9 0 13 -6.5t-3 -14.5l-240 -223q-16 -16 -37 -16h-145q-9 0 -11.5 6.5z" />
<glyph unicode="&#xce;" horiz-adv-x="548" d="M-26 1549q-3 7 3 14l201 256q14 20 37 20h123q23 0 37 -20l200 -256q6 -7 3.5 -14t-11.5 -7h-129q-22 0 -43 21l-116 120h-5l-116 -120q-21 -21 -43 -21h-129q-9 0 -12 7zM154 20v1352q0 21 20 21h201q20 0 20 -21v-1352q0 -20 -20 -20h-201q-20 0 -20 20z" />
<glyph unicode="&#xcf;" horiz-adv-x="548" d="M-25 1595v179q0 20 21 20h149q21 0 21 -20v-179q0 -20 -21 -20h-149q-21 0 -21 20zM154 20v1352q0 21 20 21h201q20 0 20 -21v-1352q0 -20 -20 -20h-201q-20 0 -20 20zM385 1595v179q0 20 21 20h149q20 0 20 -20v-179q0 -20 -20 -20h-149q-21 0 -21 20z" />
<glyph unicode="&#xd0;" horiz-adv-x="1280" d="M68 631v143q0 21 20 21h53q13 0 13 12v565q0 21 20 21h498q180 0 297.5 -79t167.5 -231q19 -56 26.5 -135.5t7.5 -251.5t-7.5 -251.5t-26.5 -135.5q-50 -152 -167.5 -230.5t-297.5 -78.5h-498q-20 0 -20 20v578q0 12 -13 12h-53q-20 0 -20 21zM395 229q0 -12 13 -12h206 q117 0 188 42t101 134q25 70 25 303t-25 303q-30 92 -101 134.5t-188 42.5h-206q-13 0 -13 -13v-356q0 -12 13 -12h198q9 0 15 -6t6 -15v-143q0 -9 -6 -15t-15 -6h-198q-13 0 -13 -12v-369z" />
<glyph unicode="&#xd1;" horiz-adv-x="1345" d="M154 20v1352q0 21 20 21h188q23 0 35 -21l568 -960h8v960q0 21 20 21h178q9 0 15 -6t6 -15v-1352q0 -20 -21 -20h-186q-24 0 -35 20l-569 959h-8v-959q0 -20 -21 -20h-178q-20 0 -20 20zM385 1569v125q0 20 16 39q66 69 148 69q60 0 137 -41q66 -37 117 -37q27 0 52.5 10 t41.5 21.5t41 32.5q8 6 13 4t5 -8v-125q0 -20 -16 -39q-67 -70 -147 -70q-61 0 -138 41q-66 37 -114 37q-40 0 -71 -16t-67 -47q-7 -6 -12.5 -4t-5.5 8z" />
<glyph unicode="&#xd2;" horiz-adv-x="1284" d="M113 696q0 163 7.5 240.5t29.5 142.5q53 164 181 250t310 86q184 0 312.5 -86t181.5 -250q22 -64 29 -141t7 -242t-7 -242t-29 -141q-53 -164 -181.5 -250t-312.5 -86q-182 0 -310 86t-181 250q-22 65 -29.5 142.5t-7.5 240.5zM324 1812.5q3 6.5 12 6.5h201q21 0 38 -21 l183 -219q6 -7 3.5 -13.5t-11.5 -6.5h-148q-21 0 -37 16l-237 223q-7 8 -4 14.5zM358 696q0 -239 25 -319q63 -182 258 -182q197 0 260 182q25 80 25 319q0 240 -25 320q-63 182 -260 182q-195 0 -258 -182q-25 -80 -25 -320z" />
<glyph unicode="&#xd3;" horiz-adv-x="1284" d="M113 696q0 163 7.5 240.5t29.5 142.5q53 164 181 250t310 86q184 0 312.5 -86t181.5 -250q22 -64 29 -141t7 -242t-7 -242t-29 -141q-53 -164 -181.5 -250t-312.5 -86q-182 0 -310 86t-181 250q-22 65 -29.5 142.5t-7.5 240.5zM358 696q0 -239 25 -319q63 -182 258 -182 q197 0 260 182q25 80 25 319q0 240 -25 320q-63 182 -260 182q-195 0 -258 -182q-25 -80 -25 -320zM523 1565.5q-3 6.5 3 13.5l181 219q17 21 38 21h201q9 0 13 -6.5t-3 -14.5l-239 -223q-16 -16 -37 -16h-145q-9 0 -12 6.5z" />
<glyph unicode="&#xd4;" horiz-adv-x="1284" d="M113 696q0 163 7.5 240.5t29.5 142.5q53 164 181 250t310 86q184 0 312.5 -86t181.5 -250q22 -64 29 -141t7 -242t-7 -242t-29 -141q-53 -164 -181.5 -250t-312.5 -86q-182 0 -310 86t-181 250q-22 65 -29.5 142.5t-7.5 240.5zM338.5 1549q-2.5 7 3.5 14l201 256 q14 20 37 20h122q23 0 37 -20l201 -256q6 -7 3.5 -14t-11.5 -7h-129q-22 0 -43 21l-117 120h-4l-117 -120q-21 -21 -43 -21h-129q-9 0 -11.5 7zM358 696q0 -239 25 -319q63 -182 258 -182q197 0 260 182q25 80 25 319q0 240 -25 320q-63 182 -260 182q-195 0 -258 -182 q-25 -80 -25 -320z" />
<glyph unicode="&#xd5;" horiz-adv-x="1284" d="M113 696q0 163 7.5 240.5t29.5 142.5q53 164 181 250t310 86q184 0 312.5 -86t181.5 -250q22 -64 29 -141t7 -242t-7 -242t-29 -141q-53 -164 -181.5 -250t-312.5 -86q-182 0 -310 86t-181 250q-22 65 -29.5 142.5t-7.5 240.5zM354 1569v125q0 19 17 39q66 69 147 69 q60 0 137 -41q66 -37 117 -37q27 0 52.5 10t41.5 21.5t41 32.5q7 6 13 4t6 -8v-125q0 -19 -17 -39q-67 -70 -147 -70q-60 0 -137 41q-66 37 -115 37q-40 0 -70 -16t-67 -47q-7 -6 -13 -4t-6 8zM358 696q0 -239 25 -319q63 -182 258 -182q197 0 260 182q25 80 25 319 q0 240 -25 320q-63 182 -260 182q-195 0 -258 -182q-25 -80 -25 -320z" />
<glyph unicode="&#xd6;" horiz-adv-x="1284" d="M113 696q0 163 7.5 240.5t29.5 142.5q53 164 181 250t310 86q184 0 312.5 -86t181.5 -250q22 -64 29 -141t7 -242t-7 -242t-29 -141q-53 -164 -181.5 -250t-312.5 -86q-182 0 -310 86t-181 250q-22 65 -29.5 142.5t-7.5 240.5zM340 1595v179q0 20 20 20h150q20 0 20 -20 v-179q0 -20 -20 -20h-150q-20 0 -20 20zM358 696q0 -239 25 -319q63 -182 258 -182q197 0 260 182q25 80 25 319q0 240 -25 320q-63 182 -260 182q-195 0 -258 -182q-25 -80 -25 -320zM750 1595v179q0 20 20 20h150q20 0 20 -20v-179q0 -20 -20 -20h-150q-20 0 -20 20z" />
<glyph unicode="&#xd7;" d="M176 289q-14 14 0 28l238 240q8 8 0 16l-238 240q-14 15 0 29l109 110q14 14 28 0l240 -237q9 -9 18 0l240 237q15 14 29 0l108 -110q14 -14 0 -29l-239 -238q-9 -9 0 -18l239 -240q14 -14 0 -28l-108 -111q-14 -14 -29 0l-242 238q-8 8 -16 0l-240 -238q-14 -14 -28 0z " />
<glyph unicode="&#xd8;" horiz-adv-x="1284" d="M113 -54.5q-3 6.5 2 13.5l116 197q-56 72 -81 157q-22 65 -29.5 142.5t-7.5 240.5t7.5 240.5t29.5 142.5q53 164 181 250t310 86q174 0 299 -78l59 99q11 18 31 18h129q9 0 12 -6t-2 -14l-118 -197q54 -69 84 -158q22 -64 29 -141t7 -242t-7 -242t-29 -141 q-53 -164 -181.5 -250t-312.5 -86q-174 0 -299 78l-57 -98q-11 -18 -31 -18h-129q-9 0 -12 6.5zM356 696q0 -232 21 -309l442 754q-69 57 -178 57q-197 0 -260 -182q-25 -80 -25 -320zM465 250q67 -55 176 -55q199 0 262 182q25 80 25 319q0 216 -21 305z" />
<glyph unicode="&#xd9;" horiz-adv-x="1316" d="M145 489v883q0 9 6 15t15 6h201q20 0 20 -21v-878q0 -142 74 -220.5t196 -78.5q123 0 198 78.5t75 220.5v878q0 21 20 21h201q20 0 20 -21v-883q0 -158 -67 -275.5t-183 -177t-264 -59.5q-225 0 -368.5 137t-143.5 375zM336 1812.5q3 6.5 12 6.5h201q21 0 39 -21 l182 -219q6 -7 3.5 -13.5t-11.5 -6.5h-148q-20 0 -36 16l-238 223q-7 8 -4 14.5z" />
<glyph unicode="&#xda;" horiz-adv-x="1316" d="M145 489v883q0 9 6 15t15 6h201q20 0 20 -21v-878q0 -142 74 -220.5t196 -78.5q123 0 198 78.5t75 220.5v878q0 21 20 21h201q20 0 20 -21v-883q0 -158 -67 -275.5t-183 -177t-264 -59.5q-225 0 -368.5 137t-143.5 375zM543.5 1565.5q-2.5 6.5 3.5 13.5l180 219 q17 21 39 21h201q9 0 13 -6.5t-3 -14.5l-240 -223q-16 -16 -37 -16h-145q-9 0 -11.5 6.5z" />
<glyph unicode="&#xdb;" horiz-adv-x="1316" d="M145 489v883q0 9 6 15t15 6h201q20 0 20 -21v-878q0 -142 74 -220.5t196 -78.5q123 0 198 78.5t75 220.5v878q0 21 20 21h201q20 0 20 -21v-883q0 -158 -67 -275.5t-183 -177t-264 -59.5q-225 0 -368.5 137t-143.5 375zM355 1549q-3 7 3 14l201 256q14 20 37 20h123 q23 0 37 -20l200 -256q6 -7 3.5 -14t-11.5 -7h-129q-22 0 -43 21l-117 120h-4l-116 -120q-21 -21 -43 -21h-129q-9 0 -12 7z" />
<glyph unicode="&#xdc;" horiz-adv-x="1316" d="M145 489v883q0 9 6 15t15 6h201q20 0 20 -21v-878q0 -142 74 -220.5t196 -78.5q123 0 198 78.5t75 220.5v878q0 21 20 21h201q20 0 20 -21v-883q0 -158 -67 -275.5t-183 -177t-264 -59.5q-225 0 -368.5 137t-143.5 375zM358 1595v179q0 20 21 20h149q21 0 21 -20v-179 q0 -20 -21 -20h-149q-21 0 -21 20zM768 1595v179q0 20 20 20h150q20 0 20 -20v-179q0 -20 -20 -20h-150q-20 0 -20 20z" />
<glyph unicode="&#xdd;" horiz-adv-x="1097" d="M25 1372q-3 8 1.5 14.5t14.5 6.5h207q19 0 28 -21l273 -541h6l274 541q9 21 29 21h199q11 0 15 -6.5t1 -14.5l-403 -803v-549q0 -20 -21 -20h-200q-21 0 -21 20v549zM451.5 1565.5q-2.5 6.5 3.5 13.5l180 219q17 21 39 21h200q10 0 14 -6.5t-3 -14.5l-240 -223 q-16 -16 -37 -16h-145q-9 0 -11.5 6.5z" />
<glyph unicode="&#xde;" horiz-adv-x="1224" d="M154 20v1352q0 21 20 21h201q20 0 20 -21v-201q0 -12 13 -12h288q204 0 331.5 -119t127.5 -313t-128 -314t-331 -120h-288q-13 0 -13 -12v-261q0 -20 -20 -20h-201q-20 0 -20 20zM395 524q0 -12 13 -12h274q106 0 168.5 59t62.5 156t-62.5 156t-168.5 59h-274 q-13 0 -13 -12v-406z" />
<glyph unicode="&#xdf;" horiz-adv-x="1118" d="M150 20v981q0 414 425 414q202 0 311 -85.5t109 -248.5q0 -143 -112 -223v-4q74 -41 106 -129q14 -43 18.5 -95t4.5 -169q0 -121 -5.5 -175.5t-19.5 -99.5q-33 -101 -117 -146.5t-229 -45.5h-59q-21 0 -21 20v162q0 9 6 15t15 6h51q60 0 92 18.5t47 63.5q10 33 10 182 q0 147 -12 190q-30 94 -166 94h-22q-9 0 -15 6t-6 15v164q0 20 21 20h47q137 0 137 129q0 133 -184 133q-106 0 -154.5 -47.5t-48.5 -152.5v-992q0 -20 -21 -20h-188q-20 0 -20 20z" />
<glyph unicode="&#xe0;" horiz-adv-x="1071" d="M104 279q0 157 104 235t292 78h200q13 0 13 12v47q0 87 -48.5 125.5t-170.5 38.5q-141 0 -226 -67q-17 -14 -28 4l-76 135q-10 16 4 26q136 97 350 97q224 0 318 -80.5t94 -263.5v-646q0 -20 -21 -20h-172q-20 0 -20 20v72h-2q-37 -53 -107.5 -84t-171.5 -31 q-144 0 -238 77t-94 225zM292.5 1427q3.5 7 12.5 7h187q24 0 36 -21l152 -256q4 -9 0.5 -14.5t-12.5 -5.5h-138q-24 0 -41 20l-194 256q-6 7 -2.5 14zM324 287q0 -123 170 -123q219 0 219 168v76q0 12 -13 12h-163q-110 0 -161.5 -32t-51.5 -101z" />
<glyph unicode="&#xe1;" horiz-adv-x="1071" d="M104 279q0 157 104 235t292 78h200q13 0 13 12v47q0 87 -48.5 125.5t-170.5 38.5q-141 0 -226 -67q-17 -14 -28 4l-76 135q-10 16 4 26q136 97 350 97q224 0 318 -80.5t94 -263.5v-646q0 -20 -21 -20h-172q-20 0 -20 20v72h-2q-37 -53 -107.5 -84t-171.5 -31 q-144 0 -238 77t-94 225zM324 287q0 -123 170 -123q219 0 219 168v76q0 12 -13 12h-163q-110 0 -161.5 -32t-51.5 -101zM423.5 1142.5q-3.5 5.5 0.5 14.5l154 256q12 21 36 21h187q9 0 12.5 -7t-2.5 -14l-195 -256q-17 -20 -41 -20h-139q-9 0 -12.5 5.5z" />
<glyph unicode="&#xe2;" horiz-adv-x="1071" d="M104 279q0 157 104 235t292 78h200q13 0 13 12v47q0 87 -48.5 125.5t-170.5 38.5q-141 0 -226 -67q-17 -14 -28 4l-76 135q-10 16 4 26q136 97 350 97q224 0 318 -80.5t94 -263.5v-646q0 -20 -21 -20h-172q-20 0 -20 20v72h-2q-37 -53 -107.5 -84t-171.5 -31 q-144 0 -238 77t-94 225zM232.5 1143.5q-2.5 6.5 3.5 13.5l200 256q15 21 37 21h123q22 0 37 -21l201 -256q6 -7 3 -13.5t-12 -6.5h-129q-23 0 -43 20l-116 121h-5l-116 -121q-20 -20 -43 -20h-129q-9 0 -11.5 6.5zM324 287q0 -123 170 -123q219 0 219 168v76q0 12 -13 12 h-163q-110 0 -161.5 -32t-51.5 -101z" />
<glyph unicode="&#xe3;" horiz-adv-x="1071" d="M104 279q0 157 104 235t292 78h200q13 0 13 12v47q0 87 -48.5 125.5t-170.5 38.5q-141 0 -226 -67q-17 -14 -28 4l-76 135q-10 16 4 26q136 97 350 97q224 0 318 -80.5t94 -263.5v-646q0 -20 -21 -20h-172q-20 0 -20 20v72h-2q-37 -53 -107.5 -84t-171.5 -31 q-144 0 -238 77t-94 225zM248 1167v125q0 20 16 39q67 70 148 70q60 0 137 -41q66 -37 117 -37q27 0 52.5 10t42 21.5t40.5 31.5q7 6 12.5 4t5.5 -8v-125q0 -19 -16 -38q-67 -70 -148 -70q-60 0 -137 41q-66 37 -115 37q-40 0 -70 -16t-67 -48q-8 -6 -13 -4t-5 8zM324 287 q0 -123 170 -123q219 0 219 168v76q0 12 -13 12h-163q-110 0 -161.5 -32t-51.5 -101z" />
<glyph unicode="&#xe4;" horiz-adv-x="1071" d="M104 279q0 157 104 235t292 78h200q13 0 13 12v47q0 87 -48.5 125.5t-170.5 38.5q-141 0 -226 -67q-17 -14 -28 4l-76 135q-10 16 4 26q136 97 350 97q224 0 318 -80.5t94 -263.5v-646q0 -20 -21 -20h-172q-20 0 -20 20v72h-2q-37 -53 -107.5 -84t-171.5 -31 q-144 0 -238 77t-94 225zM233 1194v178q0 9 6 15t15 6h158q20 0 20 -21v-178q0 -20 -20 -20h-158q-21 0 -21 20zM324 287q0 -123 170 -123q219 0 219 168v76q0 12 -13 12h-163q-110 0 -161.5 -32t-51.5 -101zM635 1194v178q0 21 20 21h158q9 0 15 -6t6 -15v-178 q0 -20 -21 -20h-158q-20 0 -20 20z" />
<glyph unicode="&#xe5;" horiz-adv-x="1071" d="M104 279q0 157 104 235t292 78h200q13 0 13 12v47q0 87 -48.5 125.5t-170.5 38.5q-141 0 -226 -67q-17 -14 -28 4l-76 135q-10 16 4 26q136 97 350 97q224 0 318 -80.5t94 -263.5v-646q0 -20 -21 -20h-172q-20 0 -20 20v72h-2q-37 -53 -107.5 -84t-171.5 -31 q-144 0 -238 77t-94 225zM324 287q0 -123 170 -123q219 0 219 168v76q0 12 -13 12h-163q-110 0 -161.5 -32t-51.5 -101zM342 1288q0 88 57.5 146.5t145.5 58.5t145.5 -58.5t57.5 -146.5t-57.5 -146.5t-145.5 -58.5t-145.5 58.5t-57.5 146.5zM444 1288q0 -44 29 -74t72 -30 t71.5 30t28.5 74t-28.5 74.5t-71.5 30.5t-72 -30.5t-29 -74.5z" />
<glyph unicode="&#xe6;" horiz-adv-x="1669" d="M104 279q0 157 104 235t292 78h200q13 0 13 12v47q0 87 -48.5 125.5t-170.5 38.5q-141 0 -226 -67q-17 -14 -28 4l-76 135q-10 16 4 26q136 97 350 97q113 0 200.5 -26.5t129.5 -76.5h4q49 49 123.5 76t161.5 27q150 0 255.5 -72.5t147.5 -200.5q33 -100 33 -297 q0 -20 -23 -20h-608q-12 0 -12 -12q0 -36 14 -76q25 -72 81.5 -111t139.5 -39q145 0 232 94q16 16 30 5l121 -107q15 -12 2 -29q-66 -77 -169 -122.5t-234 -45.5q-115 0 -203 41.5t-139 114.5h-2q-87 -156 -367 -156q-144 0 -238 77t-94 225zM324 287q0 -123 170 -123 q219 0 219 168v76q0 12 -13 12h-163q-110 0 -161.5 -32t-51.5 -101zM930 604q0 -12 12 -12h387q12 0 12 12q0 46 -12 84q-20 60 -71.5 93.5t-120.5 33.5q-71 0 -123 -33.5t-72 -93.5q-12 -38 -12 -84z" />
<glyph unicode="&#xe7;" horiz-adv-x="972" d="M96 494q0 148 31 243q42 131 149.5 202t258.5 71q214 0 342 -154q12 -17 -3 -29l-129 -112q-15 -12 -28 4q-39 44 -81 65t-101 21q-141 0 -185 -129q-20 -61 -20 -182q0 -124 20 -185q21 -62 69.5 -94.5t115.5 -32.5q59 0 101 21t81 65q12 15 28 2l129 -112q14 -11 3 -29 q-100 -122 -271 -145l-88 -281q-6 -20 -33 -20h-159q-9 0 -13.5 5.5t-1.5 14.5l117 285q-109 22 -188 88.5t-113 173.5q-31 95 -31 244z" />
<glyph unicode="&#xe8;" horiz-adv-x="1067" d="M96 494q0 139 33 243q41 129 148 201t255 72q151 0 257.5 -73t148.5 -200q33 -100 33 -297q0 -20 -23 -20h-608q-12 0 -12 -12q0 -36 14 -76q25 -72 81.5 -111t139.5 -39q145 0 232 94q16 16 30 5l121 -107q15 -12 2 -29q-66 -77 -170 -122.5t-235 -45.5 q-156 0 -263 72.5t-149 202.5q-35 110 -35 242zM263.5 1427q3.5 7 12.5 7h187q25 0 37 -21l151 -256q4 -9 0.5 -14.5t-12.5 -5.5h-137q-24 0 -41 20l-195 256q-6 7 -2.5 14zM328 604q0 -12 12 -12h387q12 0 12 12q0 46 -12 84q-20 60 -71.5 93.5t-120.5 33.5 q-71 0 -123 -33.5t-72 -93.5q-12 -38 -12 -84z" />
<glyph unicode="&#xe9;" horiz-adv-x="1067" d="M96 494q0 139 33 243q41 129 148 201t255 72q151 0 257.5 -73t148.5 -200q33 -100 33 -297q0 -20 -23 -20h-608q-12 0 -12 -12q0 -36 14 -76q25 -72 81.5 -111t139.5 -39q145 0 232 94q16 16 30 5l121 -107q15 -12 2 -29q-66 -77 -170 -122.5t-235 -45.5 q-156 0 -263 72.5t-149 202.5q-35 110 -35 242zM328 604q0 -12 12 -12h387q12 0 12 12q0 46 -12 84q-20 60 -71.5 93.5t-120.5 33.5q-71 0 -123 -33.5t-72 -93.5q-12 -38 -12 -84zM417.5 1142.5q-3.5 5.5 0.5 14.5l153 256q12 21 37 21h187q9 0 12.5 -7t-2.5 -14l-195 -256 q-17 -20 -41 -20h-139q-9 0 -12.5 5.5z" />
<glyph unicode="&#xea;" horiz-adv-x="1067" d="M96 494q0 139 33 243q41 129 148 201t255 72q151 0 257.5 -73t148.5 -200q33 -100 33 -297q0 -20 -23 -20h-608q-12 0 -12 -12q0 -36 14 -76q25 -72 81.5 -111t139.5 -39q145 0 232 94q16 16 30 5l121 -107q15 -12 2 -29q-66 -77 -170 -122.5t-235 -45.5 q-156 0 -263 72.5t-149 202.5q-35 110 -35 242zM230 1143.5q-3 6.5 3 13.5l201 256q15 21 37 21h123q22 0 37 -21l200 -256q6 -7 3.5 -13.5t-11.5 -6.5h-129q-23 0 -43 20l-116 121h-5l-116 -121q-20 -20 -43 -20h-129q-9 0 -12 6.5zM328 604q0 -12 12 -12h387q12 0 12 12 q0 46 -12 84q-20 60 -71.5 93.5t-120.5 33.5q-71 0 -123 -33.5t-72 -93.5q-12 -38 -12 -84z" />
<glyph unicode="&#xeb;" horiz-adv-x="1067" d="M96 494q0 139 33 243q41 129 148 201t255 72q151 0 257.5 -73t148.5 -200q33 -100 33 -297q0 -20 -23 -20h-608q-12 0 -12 -12q0 -36 14 -76q25 -72 81.5 -111t139.5 -39q145 0 232 94q16 16 30 5l121 -107q15 -12 2 -29q-66 -77 -170 -122.5t-235 -45.5 q-156 0 -263 72.5t-149 202.5q-35 110 -35 242zM231 1194v178q0 9 6 15t15 6h158q20 0 20 -21v-178q0 -20 -20 -20h-158q-21 0 -21 20zM328 604q0 -12 12 -12h387q12 0 12 12q0 46 -12 84q-20 60 -71.5 93.5t-120.5 33.5q-71 0 -123 -33.5t-72 -93.5q-12 -38 -12 -84z M633 1194v178q0 21 20 21h158q20 0 20 -21v-178q0 -20 -20 -20h-158q-20 0 -20 20z" />
<glyph unicode="&#xec;" horiz-adv-x="528" d="M-33 1427q4 7 13 7h186q25 0 37 -21l151 -256q4 -9 0.5 -14.5t-12.5 -5.5h-137q-24 0 -41 20l-195 256q-6 7 -2 14zM150 20v947q0 20 20 20h188q21 0 21 -20v-947q0 -20 -21 -20h-188q-20 0 -20 20z" />
<glyph unicode="&#xed;" horiz-adv-x="528" d="M150 20v947q0 20 20 20h188q21 0 21 -20v-947q0 -20 -21 -20h-188q-20 0 -20 20zM177.5 1142.5q-3.5 5.5 0.5 14.5l154 256q12 21 37 21h186q9 0 12.5 -7t-2.5 -14l-194 -256q-17 -20 -41 -20h-140q-9 0 -12.5 5.5z" />
<glyph unicode="&#xee;" horiz-adv-x="528" d="M-38.5 1143.5q-2.5 6.5 3.5 13.5l201 256q15 21 37 21h123q21 0 36 -21l201 -256q6 -7 3.5 -13.5t-11.5 -6.5h-129q-23 0 -43 20l-117 121h-4l-117 -121q-20 -20 -43 -20h-129q-9 0 -11.5 6.5zM150 20v947q0 20 20 20h188q21 0 21 -20v-947q0 -20 -21 -20h-188 q-20 0 -20 20z" />
<glyph unicode="&#xef;" horiz-adv-x="528" d="M-35 1194v178q0 9 6 15t15 6h157q9 0 15 -6t6 -15v-178q0 -20 -21 -20h-157q-21 0 -21 20zM150 20v947q0 20 20 20h188q21 0 21 -20v-947q0 -20 -21 -20h-188q-20 0 -20 20zM367 1194v178q0 21 20 21h158q20 0 20 -21v-178q0 -20 -20 -20h-158q-20 0 -20 20z" />
<glyph unicode="&#xf0;" horiz-adv-x="1071" d="M96 461q0 121 31 219q40 123 131 191.5t213 68.5q81 0 133 -35h4l-129 178l-186 -57q-21 -7 -27 12l-35 119q-7 21 15 27l133 39l-109 149q-4 8 0 14.5t13 6.5h202q22 0 37 -21l64 -86l188 57q21 7 27 -12l35 -119q7 -20 -15 -26l-129 -39l49 -66q120 -161 178 -303 t58 -289q0 -139 -31 -237q-43 -130 -151 -202.5t-258 -72.5q-152 0 -258.5 71.5t-149.5 201.5q-33 104 -33 211zM326 463q0 -96 20 -160q21 -62 71.5 -94.5t119.5 -32.5t119 32.5t71 94.5q21 67 21 160q0 95 -21 162q-44 127 -190 127q-69 0 -119.5 -32.5t-71.5 -94.5 q-20 -64 -20 -162z" />
<glyph unicode="&#xf1;" horiz-adv-x="1122" d="M150 20v947q0 20 20 20h188q21 0 21 -20v-72h2q35 50 101.5 82.5t158.5 32.5q156 0 249 -103t93 -264v-623q0 -20 -20 -20h-189q-20 0 -20 20v570q0 98 -48.5 156.5t-138.5 58.5q-88 0 -138 -59t-50 -156v-570q0 -20 -21 -20h-188q-20 0 -20 20zM272 1167v125q0 19 17 39 q67 70 147 70q60 0 137 -41q66 -37 117 -37q27 0 52.5 10t42 21.5t40.5 31.5q7 6 13 4t6 -8v-125q0 -18 -17 -38q-67 -70 -147 -70q-60 0 -137 41q-66 37 -115 37q-40 0 -70 -16t-67 -48q-7 -6 -13 -4t-6 8z" />
<glyph unicode="&#xf2;" horiz-adv-x="1071" d="M96 494q0 143 33 243q41 129 149 201t259 72q149 0 256.5 -72t148.5 -201q33 -100 33 -243q0 -144 -33 -244q-41 -129 -148.5 -201t-256.5 -72q-151 0 -259 72t-149 201q-33 100 -33 244zM253.5 1427q3.5 7 12.5 7h187q24 0 36 -21l152 -256q4 -9 0.5 -14.5t-12.5 -5.5 h-137q-24 0 -41 20l-195 256q-6 7 -2.5 14zM330 494q0 -119 20 -183q22 -62 70 -95.5t117 -33.5q138 0 184 129q20 64 20 183q0 116 -20 182q-46 129 -184 129q-69 0 -117 -33.5t-70 -95.5q-20 -66 -20 -182z" />
<glyph unicode="&#xf3;" horiz-adv-x="1071" d="M96 494q0 143 33 243q41 129 149 201t259 72q149 0 256.5 -72t148.5 -201q33 -100 33 -243q0 -144 -33 -244q-41 -129 -148.5 -201t-256.5 -72q-151 0 -259 72t-149 201q-33 100 -33 244zM330 494q0 -119 20 -183q22 -62 70 -95.5t117 -33.5q138 0 184 129q20 64 20 183 q0 116 -20 182q-46 129 -184 129q-69 0 -117 -33.5t-70 -95.5q-20 -66 -20 -182zM429.5 1142.5q-3.5 5.5 0.5 14.5l154 256q12 21 37 21h186q9 0 12.5 -7t-2.5 -14l-194 -256q-17 -20 -41 -20h-140q-9 0 -12.5 5.5z" />
<glyph unicode="&#xf4;" horiz-adv-x="1071" d="M96 494q0 143 33 243q41 129 149 201t259 72q149 0 256.5 -72t148.5 -201q33 -100 33 -243q0 -144 -33 -244q-41 -129 -148.5 -201t-256.5 -72q-151 0 -259 72t-149 201q-33 100 -33 244zM232.5 1143.5q-2.5 6.5 3.5 13.5l200 256q15 21 37 21h123q22 0 37 -21l201 -256 q6 -7 3 -13.5t-12 -6.5h-129q-23 0 -43 20l-116 121h-5l-116 -121q-20 -20 -43 -20h-129q-9 0 -11.5 6.5zM330 494q0 -119 20 -183q22 -62 70 -95.5t117 -33.5q138 0 184 129q20 64 20 183q0 116 -20 182q-46 129 -184 129q-69 0 -117 -33.5t-70 -95.5q-20 -66 -20 -182z " />
<glyph unicode="&#xf5;" horiz-adv-x="1071" d="M96 494q0 143 33 243q41 129 149 201t259 72q149 0 256.5 -72t148.5 -201q33 -100 33 -243q0 -144 -33 -244q-41 -129 -148.5 -201t-256.5 -72q-151 0 -259 72t-149 201q-33 100 -33 244zM248 1167v125q0 20 16 39q67 70 148 70q60 0 137 -41q66 -37 117 -37 q27 0 52.5 10t42 21.5t40.5 31.5q7 6 12.5 4t5.5 -8v-125q0 -19 -16 -38q-67 -70 -148 -70q-60 0 -137 41q-66 37 -115 37q-40 0 -70 -16t-67 -48q-8 -6 -13 -4t-5 8zM330 494q0 -119 20 -183q22 -62 70 -95.5t117 -33.5q138 0 184 129q20 64 20 183q0 116 -20 182 q-46 129 -184 129q-69 0 -117 -33.5t-70 -95.5q-20 -66 -20 -182z" />
<glyph unicode="&#xf6;" horiz-adv-x="1071" d="M96 494q0 143 33 243q41 129 149 201t259 72q149 0 256.5 -72t148.5 -201q33 -100 33 -243q0 -144 -33 -244q-41 -129 -148.5 -201t-256.5 -72q-151 0 -259 72t-149 201q-33 100 -33 244zM233 1194v178q0 9 6 15t15 6h158q20 0 20 -21v-178q0 -20 -20 -20h-158 q-21 0 -21 20zM330 494q0 -119 20 -183q22 -62 70 -95.5t117 -33.5q138 0 184 129q20 64 20 183q0 116 -20 182q-46 129 -184 129q-69 0 -117 -33.5t-70 -95.5q-20 -66 -20 -182zM635 1194v178q0 21 20 21h158q9 0 15 -6t6 -15v-178q0 -20 -21 -20h-158q-20 0 -20 20z" />
<glyph unicode="&#xf7;" d="M113 485v160q0 21 20 21h858q9 0 15 -6t6 -15v-160q0 -20 -21 -20h-858q-20 0 -20 20zM426 205q0 58 39 97.5t96 39.5q59 0 98 -39t39 -98t-39 -98t-98 -39q-57 0 -96 39.5t-39 97.5zM426 926q0 58 39 97.5t96 39.5q59 0 98 -39.5t39 -97.5q0 -57 -39.5 -97.5 t-97.5 -40.5q-57 0 -96 40.5t-39 97.5z" />
<glyph unicode="&#xf8;" horiz-adv-x="1071" d="M96 494q0 143 33 243q41 129 149 201t259 72q140 0 247 -66l60 84q15 21 39 21h78q9 0 12 -6.5t-2 -14.5l-107 -154q49 -54 78 -137q33 -100 33 -243q0 -144 -33 -244q-41 -129 -148.5 -201t-256.5 -72q-146 0 -250 66l-60 -84q-14 -20 -37 -20h-79q-9 0 -12.5 6.5 t1.5 13.5l107 152q-54 61 -78 139q-33 100 -33 244zM326 494q0 -121 20 -185l313 461q-49 37 -122 37q-69 0 -119 -34t-72 -95q-20 -66 -20 -184zM412 217q49 -37 125 -37q69 0 117.5 33.5t70.5 95.5q20 64 20 185q0 118 -20 184z" />
<glyph unicode="&#xf9;" horiz-adv-x="1114" d="M137 344v623q0 20 21 20h188q21 0 21 -20v-570q0 -99 46.5 -157t137.5 -58q86 0 135 58.5t49 154.5v572q0 20 21 20h188q21 0 21 -20v-947q0 -20 -21 -20h-188q-21 0 -21 20v72h-2q-90 -115 -256 -115q-156 0 -248 103t-92 264zM276.5 1427q3.5 7 12.5 7h186q25 0 37 -21 l152 -256q4 -9 0 -14.5t-13 -5.5h-137q-24 0 -41 20l-194 256q-6 7 -2.5 14z" />
<glyph unicode="&#xfa;" horiz-adv-x="1114" d="M137 344v623q0 20 21 20h188q21 0 21 -20v-570q0 -99 46.5 -157t137.5 -58q86 0 135 58.5t49 154.5v572q0 20 21 20h188q21 0 21 -20v-947q0 -20 -21 -20h-188q-21 0 -21 20v72h-2q-90 -115 -256 -115q-156 0 -248 103t-92 264zM454.5 1142.5q-3.5 5.5 0.5 14.5l153 256 q12 21 37 21h186q9 0 13 -7t-2 -14l-195 -256q-17 -20 -41 -20h-139q-9 0 -12.5 5.5z" />
<glyph unicode="&#xfb;" horiz-adv-x="1114" d="M137 344v623q0 20 21 20h188q21 0 21 -20v-570q0 -99 46.5 -157t137.5 -58q86 0 135 58.5t49 154.5v572q0 20 21 20h188q21 0 21 -20v-947q0 -20 -21 -20h-188q-21 0 -21 20v72h-2q-90 -115 -256 -115q-156 0 -248 103t-92 264zM252.5 1143.5q-2.5 6.5 3.5 13.5l201 256 q15 21 37 21h122q22 0 37 -21l201 -256q6 -7 3.5 -13.5t-11.5 -6.5h-129q-23 0 -43 20l-117 121h-4l-117 -121q-20 -20 -43 -20h-129q-9 0 -11.5 6.5z" />
<glyph unicode="&#xfc;" horiz-adv-x="1114" d="M137 344v623q0 20 21 20h188q21 0 21 -20v-570q0 -99 46.5 -157t137.5 -58q86 0 135 58.5t49 154.5v572q0 20 21 20h188q21 0 21 -20v-947q0 -20 -21 -20h-188q-21 0 -21 20v72h-2q-90 -115 -256 -115q-156 0 -248 103t-92 264zM254 1194v178q0 21 20 21h158q9 0 15 -6 t6 -15v-178q0 -20 -21 -20h-158q-20 0 -20 20zM655 1194v178q0 9 6 15t15 6h158q20 0 20 -21v-178q0 -20 -20 -20h-158q-21 0 -21 20z" />
<glyph unicode="&#xfd;" horiz-adv-x="993" d="M37 967q-3 9 2 14.5t14 5.5h203q18 0 25 -20l223 -645h4l213 645q7 20 24 20h195q9 0 14 -5.5t2 -14.5l-376 -1028q-64 -174 -136.5 -241t-195.5 -67h-64q-20 0 -20 21v164q0 20 20 20h37q57 0 90.5 27t57.5 90l28 84zM403 1142.5q-4 5.5 0 14.5l154 256q12 21 37 21h186 q9 0 13 -7t-2 -14l-195 -256q-17 -20 -41 -20h-139q-9 0 -13 5.5z" />
<glyph unicode="&#xfe;" horiz-adv-x="1116" d="M150 -348v1720q0 21 20 21h188q9 0 15 -6t6 -15v-479h2q81 117 262 117q128 0 216 -60.5t126 -177.5q35 -106 35 -278q0 -173 -35 -279q-38 -117 -126 -177.5t-216 -60.5q-181 0 -262 117h-2v-442q0 -9 -6 -15t-15 -6h-188q-20 0 -20 21zM379 494q0 -121 20 -185 q42 -127 185 -127q140 0 182 127q20 64 20 185q0 120 -20 184q-42 127 -182 127q-143 0 -185 -127q-20 -64 -20 -184z" />
<glyph unicode="&#xff;" horiz-adv-x="993" d="M37 967q-3 9 2 14.5t14 5.5h203q18 0 25 -20l223 -645h4l213 645q7 20 24 20h195q9 0 14 -5.5t2 -14.5l-376 -1028q-64 -174 -136.5 -241t-195.5 -67h-64q-20 0 -20 21v164q0 20 20 20h37q57 0 90.5 27t57.5 90l28 84zM203 1194v178q0 21 20 21h158q20 0 20 -21v-178 q0 -20 -20 -20h-158q-20 0 -20 20zM604 1194v178q0 9 6 15t15 6h157q9 0 15 -6t6 -15v-178q0 -20 -21 -20h-157q-21 0 -21 20z" />
<glyph unicode="&#x152;" horiz-adv-x="1939" d="M113 696q0 163 7.5 240.5t29.5 142.5q53 164 181 250t310 86q180 0 283 -98h2v55q0 21 20 21h873q20 0 20 -21v-176q0 -20 -20 -20h-639q-13 0 -13 -13v-340q0 -12 13 -12h538q21 0 21 -20v-177q0 -20 -21 -20h-538q-13 0 -13 -12v-353q0 -12 13 -12h639q20 0 20 -20 v-177q0 -20 -20 -20h-873q-20 0 -20 20v56h-2q-104 -99 -283 -99q-182 0 -310 86t-181 250q-22 65 -29.5 142.5t-7.5 240.5zM358 696q0 -239 25 -319q63 -182 258 -182q197 0 260 182q25 80 25 319q0 240 -25 320q-63 182 -260 182q-195 0 -258 -182q-25 -80 -25 -320z" />
<glyph unicode="&#x153;" horiz-adv-x="1710" d="M96 494q0 143 33 243q41 129 149 201t259 72q204 0 319 -129h4q106 129 318 129q150 0 255.5 -72.5t147.5 -200.5q33 -100 33 -297q0 -20 -23 -20h-608q-12 0 -12 -12q0 -36 14 -76q25 -72 81.5 -111t139.5 -39q145 0 232 94q16 16 30 5l121 -107q15 -12 2 -29 q-66 -77 -169 -122.5t-234 -45.5q-214 0 -326 136h-4q-117 -136 -321 -136q-151 0 -259 72t-149 201q-33 100 -33 244zM330 494q0 -119 20 -183q22 -62 70 -95.5t117 -33.5q138 0 184 129q20 64 20 183q0 116 -20 182q-46 129 -184 129q-69 0 -117 -33.5t-70 -95.5 q-20 -66 -20 -182zM971 604q0 -12 12 -12h387q12 0 12 12q0 46 -12 84q-20 60 -71.5 93.5t-120.5 33.5q-71 0 -123 -33.5t-72 -93.5q-12 -38 -12 -84z" />
<glyph unicode="&#x178;" horiz-adv-x="1097" d="M25 1372q-3 8 1.5 14.5t14.5 6.5h207q19 0 28 -21l273 -541h6l274 541q9 21 29 21h199q11 0 15 -6.5t1 -14.5l-403 -803v-549q0 -20 -21 -20h-200q-21 0 -21 20v549zM248 1595v179q0 20 20 20h150q20 0 20 -20v-179q0 -20 -20 -20h-150q-20 0 -20 20zM657 1595v179 q0 20 21 20h149q21 0 21 -20v-179q0 -20 -21 -20h-149q-21 0 -21 20z" />
<glyph unicode="&#x2c6;" horiz-adv-x="864" d="M129.5 1143.5q-2.5 6.5 3.5 13.5l201 256q15 21 37 21h123q21 0 36 -21l201 -256q6 -7 3.5 -13.5t-11.5 -6.5h-129q-23 0 -43 20l-117 121h-4l-117 -121q-20 -20 -43 -20h-129q-9 0 -11.5 6.5z" />
<glyph unicode="&#x2dc;" horiz-adv-x="864" d="M141 1167v125q0 19 17 39q67 70 147 70q60 0 137 -41q66 -37 117 -37q27 0 52.5 10t42 21.5t40.5 31.5q8 6 13.5 4t5.5 -8v-125q0 -18 -17 -38q-67 -70 -147 -70q-60 0 -137 41q-66 37 -115 37q-40 0 -70 -16t-67 -48q-8 -6 -13.5 -4t-5.5 8z" />
<glyph unicode="&#x2000;" horiz-adv-x="942" />
<glyph unicode="&#x2001;" horiz-adv-x="1884" />
<glyph unicode="&#x2002;" horiz-adv-x="942" />
<glyph unicode="&#x2003;" horiz-adv-x="1884" />
<glyph unicode="&#x2004;" horiz-adv-x="628" />
<glyph unicode="&#x2005;" horiz-adv-x="471" />
<glyph unicode="&#x2006;" horiz-adv-x="314" />
<glyph unicode="&#x2007;" horiz-adv-x="314" />
<glyph unicode="&#x2008;" horiz-adv-x="235" />
<glyph unicode="&#x2009;" horiz-adv-x="376" />
<glyph unicode="&#x200a;" horiz-adv-x="104" />
<glyph unicode="&#x2010;" horiz-adv-x="788" d="M92 463v162q0 20 21 20h563q20 0 20 -20v-162q0 -21 -20 -21h-563q-9 0 -15 6t-6 15z" />
<glyph unicode="&#x2011;" horiz-adv-x="788" d="M92 463v162q0 20 21 20h563q20 0 20 -20v-162q0 -21 -20 -21h-563q-9 0 -15 6t-6 15z" />
<glyph unicode="&#x2012;" horiz-adv-x="788" d="M92 463v162q0 20 21 20h563q20 0 20 -20v-162q0 -21 -20 -21h-563q-9 0 -15 6t-6 15z" />
<glyph unicode="&#x2013;" horiz-adv-x="1062" d="M41 469v149q0 21 20 21h940q9 0 15 -6t6 -15v-149q0 -20 -21 -20h-940q-20 0 -20 20z" />
<glyph unicode="&#x2014;" horiz-adv-x="1775" d="M41 469v149q0 21 20 21h1653q9 0 15 -6t6 -15v-149q0 -20 -21 -20h-1653q-20 0 -20 20z" />
<glyph unicode="&#x2018;" horiz-adv-x="456" d="M125 1020v192q0 27 16 43l142 127q12 15 28 15q9 0 15 -6t6 -15v-356q0 -9 -6 -15t-15 -6h-166q-20 0 -20 21z" />
<glyph unicode="&#x2019;" horiz-adv-x="456" d="M125 1016v356q0 21 20 21h166q9 0 15 -6t6 -15v-192q0 -26 -17 -43l-139 -127q-15 -15 -31 -15q-20 0 -20 21z" />
<glyph unicode="&#x201a;" horiz-adv-x="456" d="M125 -164v357q0 20 20 20h166q21 0 21 -20v-193q0 -26 -17 -43l-139 -127q-14 -14 -31 -14q-20 0 -20 20z" />
<glyph unicode="&#x201c;" horiz-adv-x="811" d="M125 1020v192q0 27 16 43l142 127q12 15 28 15q9 0 15 -6t6 -15v-356q0 -9 -6 -15t-15 -6h-166q-20 0 -20 21zM479 1020v192q0 26 17 43l139 127q15 15 31 15q20 0 20 -21v-356q0 -21 -20 -21h-166q-9 0 -15 6t-6 15z" />
<glyph unicode="&#x201d;" horiz-adv-x="811" d="M125 1016v356q0 21 20 21h166q9 0 15 -6t6 -15v-192q0 -26 -17 -43l-139 -127q-15 -15 -31 -15q-20 0 -20 21zM479 1016v356q0 9 6 15t15 6h166q20 0 20 -21v-192q0 -27 -16 -43l-142 -127q-12 -15 -28 -15q-9 0 -15 6t-6 15z" />
<glyph unicode="&#x201e;" horiz-adv-x="811" d="M125 -164v357q0 20 20 20h166q21 0 21 -20v-193q0 -26 -17 -43l-139 -127q-14 -14 -31 -14q-20 0 -20 20zM479 -164v357q0 20 21 20h166q20 0 20 -20v-193q0 -27 -16 -43l-142 -127q-11 -14 -28 -14q-21 0 -21 20z" />
<glyph unicode="&#x2022;" horiz-adv-x="937" d="M184 631q0 126 80 205t205 79t205 -79t80 -205t-80 -205.5t-205 -79.5t-205 79.5t-80 205.5z" />
<glyph unicode="&#x2026;" horiz-adv-x="1554" d="M135 20v209q0 9 6 15t15 6h204q9 0 15 -6t6 -15v-209q0 -20 -21 -20h-204q-21 0 -21 20zM653 20v209q0 9 6 15t15 6h205q20 0 20 -21v-209q0 -20 -20 -20h-205q-21 0 -21 20zM1171 20v209q0 9 6 15t15 6h205q20 0 20 -21v-209q0 -20 -20 -20h-205q-21 0 -21 20z" />
<glyph unicode="&#x202f;" horiz-adv-x="376" />
<glyph unicode="&#x2039;" horiz-adv-x="645" d="M72 526q-14 14 0 29l417 420q6 6 13.5 3.5t7.5 -11.5v-197q0 -22 -21 -43l-178 -178q-9 -9 0 -17l178 -178q21 -21 21 -43v-196q0 -9 -7.5 -12t-13.5 3z" />
<glyph unicode="&#x203a;" horiz-adv-x="645" d="M135 115v196q0 21 19 43l180 178q8 8 0 17l-180 178q-19 22 -19 43v197q0 9 7.5 11.5t13.5 -3.5l417 -420q6 -6 6 -14.5t-6 -14.5l-417 -420q-6 -6 -13.5 -3t-7.5 12z" />
<glyph unicode="&#x205f;" horiz-adv-x="471" />
<glyph unicode="&#x20ac;" d="M82 508v119q0 20 20 20h76q12 0 12 12v84q0 13 -12 13h-76q-20 0 -20 20v119q0 20 20 20h76q12 0 12 13q0 99 27 192q47 145 154 220t264 75q143 0 243 -66.5t154 -179.5q8 -17 -10 -26l-150 -72q-18 -9 -28 8q-39 66 -87.5 98.5t-121.5 32.5q-147 0 -195 -143 q-18 -49 -18 -139q0 -13 12 -13h373q20 0 20 -20l-20 -119q-3 -20 -21 -20h-352q-12 0 -12 -13v-84q0 -12 12 -12h332q20 0 20 -20l-20 -119q-3 -21 -21 -21h-311q-12 0 -12 -12q0 -99 18 -149q48 -144 195 -144q73 0 121.5 32.5t87.5 98.5q11 18 28 9l150 -72q19 -9 10 -27 q-54 -113 -154 -179.5t-243 -66.5q-157 0 -264 75t-154 220q-27 93 -27 203q0 12 -12 12h-76q-20 0 -20 21z" />
<glyph unicode="&#x2122;" horiz-adv-x="1736" d="M86 1264v108q0 21 20 21h605q20 0 20 -21v-108q0 -21 -20 -21h-205q-12 0 -12 -12v-625q0 -20 -21 -20h-129q-20 0 -20 20v625q0 12 -13 12h-205q-20 0 -20 21zM872 606v766q0 9 6 15t15 6h108q19 0 29 -21l219 -475h6l213 475q10 21 29 21h109q20 0 20 -21v-766 q0 -20 -20 -20h-119q-21 0 -21 20v418h-4l-139 -301q-11 -21 -27 -21h-94q-14 0 -24 21l-142 301h-4v-418q0 -20 -20 -20h-119q-21 0 -21 20z" />
<glyph unicode="&#x25fc;" horiz-adv-x="983" d="M0 0v983h983v-983h-983z" />
</font>
</defs>
</svg>
