<?xml version="1.0" standalone="no"?>
<!DOCTYPE svg PUBLIC "-//W3C//DTD SVG 1.1//EN" "http://www.w3.org/Graphics/SVG/1.1/DTD/svg11.dtd" >
<svg xmlns="http://www.w3.org/2000/svg" xmlns:xlink="http://www.w3.org/1999/xlink" version="1.1">
<metadata></metadata>
<defs>
<font id="neutra_displaytitling" horiz-adv-x="557" >
<font-face units-per-em="2048" ascent="1597" descent="-451" />
<missing-glyph horiz-adv-x="495" />
<glyph horiz-adv-x="0" />
<glyph horiz-adv-x="682" />
<glyph unicode="&#xd;" horiz-adv-x="495" />
<glyph unicode=" "  horiz-adv-x="495" />
<glyph unicode="&#x09;" horiz-adv-x="495" />
<glyph unicode="&#xa0;" horiz-adv-x="495" />
<glyph unicode="!" horiz-adv-x="618" d="M104 180q0 87 60.5 144t144.5 57q82 0 143.5 -57t61.5 -144t-61.5 -143.5t-143.5 -56.5q-84 0 -144.5 56.5t-60.5 143.5zM117 1393h385l-41 -922h-303z" />
<glyph unicode="&#x22;" horiz-adv-x="872" d="M49 1393h348l-35 -486h-278zM475 1393h348l-35 -486h-282z" />
<glyph unicode="#" horiz-adv-x="1157" d="M45 498v270h180l37 170h-121v270h183l41 185h253l-40 -185h159l41 185h254l-41 -185h121v-270h-182q1 0 -8.5 -42.5t-19.5 -85.5l-9 -42h123v-270h-182l-41 -185h-254l41 185h-160l-41 -185h-254l41 185h-121zM479 768h160l37 170h-160q1 0 -8.5 -42.5t-19.5 -85.5z" />
<glyph unicode="$" horiz-adv-x="1210" d="M25 248l264 198q98 -138 246 -159v272l-95 31q-170 57 -259 155.5t-89 258.5q0 76 25.5 140.5t68 110t100 79t120 51t129.5 22.5v176h149v-180q246 -30 371 -193l-209 -213q-25 27 -42.5 43.5t-50 34.5t-69.5 25v-244l68 -22q223 -77 312 -182.5t89 -268.5 q0 -173 -123.5 -277.5t-345.5 -121.5v-222h-149v220q-177 11 -306.5 86.5t-203.5 179.5zM436 1010q0 -37 22 -58.5t77 -42.5v193q-99 -18 -99 -92zM684 289q117 21 117 106q0 39 -26.5 64t-90.5 49v-219z" />
<glyph unicode="%" horiz-adv-x="1984" d="M41 999q0 116 58 211t154.5 147t209.5 52q174 0 299 -117.5t125 -292.5t-125 -292t-299 -117t-298 117t-124 292zM328 999q0 -66 37.5 -107.5t97.5 -41.5t98.5 41.5t38.5 107.5q0 67 -38.5 108.5t-98.5 41.5t-97.5 -41.5t-37.5 -108.5zM420 0l874 1393h271l-875 -1393 h-270zM1098 389q0 116 58 211t154.5 147t209.5 52q174 0 299 -117.5t125 -292.5t-125 -292t-299 -117t-298 117t-124 292zM1384 389q0 -66 38 -107.5t98 -41.5t98.5 41.5t38.5 107.5q0 67 -38.5 108.5t-98.5 41.5t-98 -41.5t-38 -108.5z" />
<glyph unicode="&#x26;" horiz-adv-x="1411" d="M37 389q0 147 75.5 238.5t233.5 167.5q-86 142 -86 274q0 154 114 247t294 93q178 0 284.5 -85t106.5 -230q0 -115 -60 -196t-192 -153l168 -210q43 85 49 192h311q-9 -250 -159 -444l223 -283h-432l-52 63q-153 -83 -342 -83q-237 0 -386.5 110.5t-149.5 298.5zM418 426 q0 -70 45.5 -110t136.5 -40q62 0 129 25l-227 287q-84 -65 -84 -162zM596 1081q0 -68 59 -143q99 63 99 139q0 84 -76 84q-82 0 -82 -80z" />
<glyph unicode="'" horiz-adv-x="446" d="M49 1393h348l-35 -486h-278z" />
<glyph unicode="(" horiz-adv-x="718" d="M74 698q0 120 25 232.5t63.5 198t93 163.5t105.5 131.5t108 100.5l215 -168q-79 -99 -127 -186t-78 -207t-30 -265q0 -211 60 -361t181 -302l-221 -162q-58 47 -108.5 100t-105 131t-93 163t-63.5 197.5t-25 233.5z" />
<glyph unicode=")" horiz-adv-x="718" d="M29 35q121 152 181 302t60 361q0 145 -30 265t-78 207t-127 186l215 168q57 -47 108 -100.5t105.5 -131.5t93 -163.5t63.5 -198t25 -232.5q0 -121 -25 -233.5t-63.5 -197.5t-93 -163t-105 -131t-108.5 -100z" />
<glyph unicode="*" horiz-adv-x="770" d="M47 1004l154 49l-154 49l121 225q62 -51 119 -98l-31 164h254l-29 -168l121 102l121 -225l-154 -49l154 -49l-121 -226l-121 103l29 -168h-254l31 164l-119 -99z" />
<glyph unicode="+" horiz-adv-x="866" d="M55 524v297h221v244h314v-244h221v-297h-221v-243h-314v243h-221z" />
<glyph unicode="," d="M74 186q0 85 59 140t141 55q86 0 147.5 -55t61.5 -140q0 -49 -19.5 -95.5t-60.5 -115.5l-122 -206h-156l70 239q-57 19 -89 66.5t-32 111.5z" />
<glyph unicode="-" horiz-adv-x="647" d="M74 438v297h499v-297h-499z" />
<glyph unicode="." d="M74 180q0 87 60.5 144t144.5 57q82 0 143 -57t61 -144t-61 -143.5t-143 -56.5q-84 0 -144.5 56.5t-60.5 143.5z" />
<glyph unicode="/" horiz-adv-x="1005" d="M39 0l588 1393h340l-588 -1393h-340z" />
<glyph unicode="0" horiz-adv-x="1601" d="M53 696q0 204 103.5 369t274 254.5t370.5 89.5q149 0 285.5 -53t238.5 -145.5t162.5 -226.5t60.5 -288t-60.5 -288.5t-162.5 -227t-238.5 -145.5t-285.5 -53t-285.5 53t-239 145.5t-163 227t-60.5 288.5zM434 696q0 -170 98.5 -280.5t268.5 -110.5t268 110.5t98 280.5 t-98 279.5t-268 109.5t-268.5 -110t-98.5 -279z" />
<glyph unicode="1" horiz-adv-x="751" d="M43 1079v314h571v-1393h-372v1079h-199z" />
<glyph unicode="2" horiz-adv-x="1185" d="M8.5 8.5q-2.5 8.5 9.5 20.5l603 643q70 77 105.5 136.5t35.5 127.5q0 69 -45.5 112.5t-120.5 43.5q-79 0 -137.5 -58.5t-73.5 -156.5l-334 98q47 206 192 320t363 114q148 0 265.5 -53t185 -154.5t67.5 -234.5q0 -123 -57.5 -229.5t-169.5 -225.5l-195 -207h414v-305 h-1091q-14 0 -16.5 8.5z" />
<glyph unicode="3" horiz-adv-x="1239" d="M20 305l306 158q79 -168 256 -168q106 0 166.5 51.5t60.5 142.5q0 94 -63 144.5t-181 50.5q-111 0 -205 -33q-14 -5 -22 1.5t0 19.5l291 407h-479v314h1026q8 0 10 -4.5t-4 -12.5l-348 -467q71 -14 132 -46t111.5 -84t79.5 -130.5t29 -175.5q0 -221 -158 -357t-422 -136 q-208 0 -361 91t-225 234z" />
<glyph unicode="4" horiz-adv-x="1361" d="M70 242v282l682 869h383v-856h159v-295h-159v-242h-357v242h-708zM446 537h332v421z" />
<glyph unicode="5" horiz-adv-x="1214" d="M20 279l299 165q32 -58 95.5 -102.5t150.5 -44.5q97 0 156 46.5t59 133.5q0 193 -258 193q-182 0 -342 -103q-30 -18 -30 11v815h876v-314h-571v-147q54 20 157 20q261 0 405 -130.5t144 -342.5q0 -227 -159.5 -363t-423.5 -136q-199 0 -344 82t-214 217z" />
<glyph unicode="6" horiz-adv-x="1253" d="M53 487q0 201 129 385l365 521h385l-297 -422q128 11 237.5 -25t180.5 -104.5t111 -158.5t40 -187q0 -145 -74.5 -263t-207.5 -185.5t-297 -67.5q-161 0 -292.5 67t-205.5 183t-74 257zM412 496q0 -87 58 -150t153 -63q96 0 153.5 63t57.5 150q0 89 -57 152t-154 63 q-95 0 -153 -62t-58 -153z" />
<glyph unicode="7" horiz-adv-x="1200" d="M51 1079v314h1127q16 0 6 -23l-629 -1370h-393l500 1079h-611z" />
<glyph unicode="8" horiz-adv-x="1239" d="M49 436q0 132 68 228.5t190 148.5q-127 99 -127 252q0 148 121 246t320 98q198 0 318 -98t120 -246q0 -155 -127 -250q121 -54 189.5 -151t68.5 -228q0 -94 -37.5 -176t-108 -145t-179.5 -99t-244 -36t-244.5 36.5t-180.5 99t-109 144.5t-38 176zM403 465 q0 -88 58.5 -142.5t159.5 -54.5q100 0 157.5 56t57.5 141q0 84 -57.5 139t-157.5 55t-159 -55t-59 -139zM489 1024q0 -49 36 -85t96 -36q59 0 94 36t35 85q0 48 -35 83.5t-94 35.5q-60 0 -96 -35.5t-36 -83.5z" />
<glyph unicode="9" horiz-adv-x="1253" d="M49 897q0 220 165 368t415 148q121 0 227.5 -39.5t181.5 -107.5t118.5 -162t43.5 -199q0 -191 -145 -385l-389 -520h-385l313 414q-123 -6 -228 33t-173 108t-106 158t-38 184zM420 897q0 -89 57 -152t154 -63q95 0 153 62t58 153q0 87 -58 150t-153 63q-96 0 -153.5 -63 t-57.5 -150z" />
<glyph unicode=":" horiz-adv-x="569" d="M80 180q0 87 60.5 144t144.5 57q82 0 143 -57t61 -144t-61 -143.5t-143 -56.5q-84 0 -144.5 56.5t-60.5 143.5zM80 748q0 87 60.5 143.5t144.5 56.5q82 0 143 -56.5t61 -143.5t-61 -144t-143 -57q-84 0 -144.5 57t-60.5 144z" />
<glyph unicode=";" horiz-adv-x="569" d="M80 186q0 85 59.5 140t141.5 55q86 0 147 -54.5t61 -140.5q0 -50 -19 -96.5t-60 -114.5l-123 -206h-156l70 239q-57 19 -89 66.5t-32 111.5zM80 748q0 87 60.5 143.5t144.5 56.5q82 0 143 -56.5t61 -143.5t-61 -144t-143 -57q-84 0 -144.5 57t-60.5 144z" />
<glyph unicode="&#x3c;" horiz-adv-x="856" d="M55 627q-29 16 0 32l746 431v-326l-250 -121l250 -121v-325z" />
<glyph unicode="=" horiz-adv-x="866" d="M55 299v297h756v-297h-756zM55 709v297h756v-297h-756z" />
<glyph unicode="&#x3e;" horiz-adv-x="856" d="M55 197v325l250 121l-250 121v326l746 -431q29 -16 0 -32z" />
<glyph unicode="?" horiz-adv-x="1062" d="M23 1139q58 120 185 195t308 75q226 0 364 -111.5t138 -287.5q0 -174 -85.5 -275.5t-264.5 -136.5v-127h-344v360h151q84 0 126 37t42 105q0 61 -39 95t-104 34q-124 0 -189 -121zM289 180q0 87 60.5 144t144.5 57q82 0 143 -57t61 -144t-61 -143.5t-143 -56.5 q-84 0 -144.5 56.5t-60.5 143.5z" />
<glyph unicode="@" horiz-adv-x="1576" d="M47 680q0 209 103.5 377.5t274.5 260t374 91.5q211 0 378 -85.5t260 -239.5t93 -349q0 -207 -94.5 -318.5t-239.5 -111.5q-190 0 -256 109q-45 -59 -103 -84t-143 -25q-139 0 -239.5 105.5t-100.5 261.5q0 157 100.5 262.5t239.5 105.5q135 0 193 -71v53h303v-393 q0 -109 61 -109q40 0 69.5 50t29.5 161q0 248 -144.5 380t-412.5 132q-251 0 -404 -156.5t-153 -406.5q0 -253 156 -407t429 -154q172 0 287 59l82 -147q-138 -80 -363 -80q-163 0 -305.5 50.5t-248 142.5t-166 230.5t-60.5 305.5zM664 672q0 -53 32.5 -84t81.5 -31 q47 0 79 31.5t32 83.5q0 51 -32 83.5t-79 32.5q-48 0 -81 -32.5t-33 -83.5z" />
<glyph unicode="A" horiz-adv-x="1394" d="M8 0l678 1417q4 11 12 11t13 -11l675 -1417h-385l-53 119h-1h-1h-1h-1h-1h-1h-1h-1h-1h-1h-1h-1h-1h-1h-1h-1h-1h-1h-1h-1h-1h-1h-1h-1h-1h-1h-1h-1h-1h-1h-1h-1h-1h-1h-1h-1h-1h-1h-1h-1h-1h-1h-1h-1h-1h-1h-1h-1h-1h-1h-1h-1h-1h-1h-1h-1h-1h-1h-1h-1h-1h-1h-1h-1h-1 h-1h-1h-1h-1h-1h-1h-1h-1h-1h-1h-1h-1h-1h-1h-1h-1h-1h-1h-1h-1h-1h-1h-1h-1h-1h-1h-1h-1h-1h-1h-1h-2h-1h-1h-1h-1h-1h-1h-1h-1h-1h-1h-2h-1h-1h-1h-1h-1h-1h-1h-2h-1h-1h-1h-1h-1h-1h-2h-1h-1h-1h-1h-2h-1h-1h-1h-1h-2h-1h-1h-1h-1h-2h-1h-1h-1h-2h-1h-1h-1h-2h-1h-1h-1 h-2h-1h-1h-1h-2h-1h-1h-2h-1h-1h-1h-2h-1h-1h-2h-1h-1h-2h-1h-1h-2h-1h-1h-2h-1h-1h-2h-1h-1h-2h-1h-2h-1h-1h-2h-1h-1h-2h-1h-2h-1h-1h-2h-1h-2h-1h-1h-2h-1h-2h-1h-2h-1h-1h-2h-1h-2h-1h-2h-1h-2h-1h-1h-2h-1h-2h-1h-2h-1h-2h-1h-2h-1h-2h-1h-2h-1h-2h-1h-2h-1h-2h-1h-2 h-1h-2h-1h-2h-2h-1h-2h-1h-2h-1h-2h-1h-2h-1h-2h-2h-1h-2h-1h-2h-1h-2h-2h-1h-2h-1h-2h-2h-1h-2h-1h-2h-2h-1h-2h-2h-1h-2h-1h-2h-2h-1h-2h-2h-1h-2h-2h-1h-2h-1h-2h-2h-1h-2h-2h-1h-2h-2h-2h-1h-2h-2h-1h-2h-2h-1h-2h-2h-1h-2h-2h-2h-1h-2h-2h-1h-2h-2h-2h-1h-2h-2h-2h-1 h-2h-2h-2h-1h-2h-2h-2h-1h-2h-2h-2h-2h-1h-2h-2h-2h-1h-2h-2h-2h-2h-2h-1h-2h-2h-2h-2h-1h-2h-2h-2h-2h-2h-1h-2h-2h-2h-2h-2h-1h-2h-2h-2h-2h-2h-2h-1h-2h-2h-2h-2h-2h-2h-2h-1h-2h-9l-51 -119h-365zM543 397h282l-143 324z" />
<glyph unicode="B" horiz-adv-x="1306" d="M121 0v1393h569q209 0 333 -91t124 -249q0 -109 -42.5 -172t-117.5 -99q126 -36 203.5 -125t77.5 -239q0 -199 -146 -308.5t-407 -109.5h-594zM481 295h226q102 0 145 40.5t43 117.5q0 76 -43.5 115.5t-144.5 39.5h-226v-313zM481 879h181q118 0 118 106q0 113 -114 113 h-185v-219z" />
<glyph unicode="C" horiz-adv-x="1413" d="M53 696q0 204 98.5 369t259.5 254.5t347 89.5q399 0 602 -299l-281 -190q-107 165 -315 165q-150 0 -240 -110.5t-90 -278.5q0 -169 93 -280t249 -111q126 0 202.5 50.5t125.5 142.5l287 -185q-102 -172 -250.5 -251.5t-362.5 -79.5q-145 0 -278 53t-231.5 146t-157 227 t-58.5 288z" />
<glyph unicode="D" horiz-adv-x="1409" d="M121 0v1393h538q201 0 360 -83t252 -243t93 -371t-93 -370.5t-252 -242.5t-360 -83h-538zM494 315h124q168 0 266.5 103.5t98.5 277.5t-98.5 277.5t-266.5 103.5h-124v-762z" />
<glyph unicode="E" horiz-adv-x="1185" d="M121 0v1393h977v-314h-604v-323h503v-297h-503v-146h632v-313h-1005z" />
<glyph unicode="F" horiz-adv-x="1130" d="M121 0v1393h946v-314h-573v-323h505v-314h-505v-442h-373z" />
<glyph unicode="G" horiz-adv-x="1474" d="M53 696q0 205 102 369.5t271 254t369 89.5q182 0 324.5 -64.5t234.5 -183.5l-260 -225q-116 149 -308 149q-165 0 -258.5 -109.5t-93.5 -279.5q0 -173 98 -287t275 -114q158 0 270 55v119h-276v287h608v-582q-111 -91 -251.5 -141.5t-354.5 -50.5q-204 0 -375 90 t-273 254.5t-102 369.5z" />
<glyph unicode="H" horiz-adv-x="1470" d="M121 0v1393h373v-637h483v637h373v-1393h-373v442h-483v-442h-373z" />
<glyph unicode="I" horiz-adv-x="630" d="M129 0v1393h373v-1393h-373z" />
<glyph unicode="J" horiz-adv-x="995" d="M12 211l281 180q27 -45 53.5 -68.5t69.5 -23.5q96 0 96 119v975h373v-1002q0 -196 -112 -303.5t-314 -107.5q-324 0 -447 231z" />
<glyph unicode="K" horiz-adv-x="1396" d="M121 0v1393h373v-578l430 578h403l-463 -605l518 -788h-440l-332 506q1 0 -40.5 -51.5t-75.5 -92.5v-362h-373z" />
<glyph unicode="L" horiz-adv-x="1136" d="M121 0v1393h373v-1080h591v-313h-964z" />
<glyph unicode="M" horiz-adv-x="1693" d="M84 0l82 1407q3 21 18 2l668 -750l657 750q6 8 12 8t7 -10l82 -1407h-367l-33 594l-348 -404q-9 -9 -18 0l-363 406l-32 -596h-365z" />
<glyph unicode="N" horiz-adv-x="1495" d="M121 0v1411q0 27 29 4l874 -721v699h350v-1413q0 -27 -28 -5l-875 719v-694h-350z" />
<glyph unicode="O" horiz-adv-x="1601" d="M53 696q0 204 103.5 369t274 254.5t370.5 89.5q149 0 285.5 -53t238.5 -145.5t162.5 -226.5t60.5 -288t-60.5 -288.5t-162.5 -227t-238.5 -145.5t-285.5 -53t-285.5 53t-239 145.5t-163 227t-60.5 288.5zM434 696q0 -170 98.5 -280.5t268.5 -110.5t268 110.5t98 280.5 t-98 279.5t-268 109.5t-268.5 -110t-98.5 -279z" />
<glyph unicode="P" horiz-adv-x="1286" d="M121 0v1393h528q138 0 249.5 -42t184.5 -115.5t112.5 -173.5t39.5 -216t-39.5 -215.5t-112.5 -173t-184.5 -115t-249.5 -41.5h-155v-301h-373zM494 616h137q229 0 229 230q0 231 -229 231h-137v-461z" />
<glyph unicode="Q" horiz-adv-x="1601" d="M53 696q0 204 103.5 369t274 254.5t370.5 89.5q149 0 285.5 -53t238.5 -145.5t162.5 -226.5t60.5 -288q0 -134 -46 -253.5t-126.5 -209t-188.5 -151t-233 -86.5v-250h-307v250q-125 25 -233 86.5t-188.5 151t-126.5 209t-46 253.5zM434 696q0 -136 55.5 -233.5 t157.5 -138.5v247h307v-247q102 41 157.5 138.5t55.5 233.5q0 170 -98 279.5t-268 109.5t-268.5 -110t-98.5 -279z" />
<glyph unicode="R" horiz-adv-x="1288" d="M121 0v1393h528q138 0 249.5 -42t184.5 -115.5t112.5 -173.5t39.5 -216q0 -151 -64.5 -267.5t-187.5 -183.5l248 -395h-404l-194 319h-139v-319h-373zM494 616h137q229 0 229 230q0 231 -229 231h-137v-461z" />
<glyph unicode="S" horiz-adv-x="1163" d="M8 238l271 202q58 -72 126 -111.5t164 -39.5q176 0 176 110q0 42 -32 68t-105 51l-164 55q-346 116 -346 420q0 80 25.5 148t70 117t105 83.5t130 51t144.5 16.5q306 0 463 -184l-213 -224q-48 50 -100 75.5t-129 25.5q-65 0 -100 -26.5t-35 -69.5q0 -39 23 -62t75 -41 l184 -61q203 -67 288 -168t85 -254q0 -202 -131 -321t-397 -119q-112 0 -209 23.5t-167 63.5t-118 81.5t-84 89.5z" />
<glyph unicode="T" horiz-adv-x="1204" d="M47 1079v314h1110v-314h-369v-1079h-372v1079h-369z" />
<glyph unicode="U" horiz-adv-x="1421" d="M106 539v854h373v-850q0 -121 57.5 -184.5t174.5 -63.5q231 0 231 248v850h373v-854q0 -110 -29.5 -201.5t-83 -157.5t-128.5 -111t-166.5 -67t-196.5 -22q-132 0 -241.5 35t-191 103t-127 176t-45.5 245z" />
<glyph unicode="V" horiz-adv-x="1353" d="M8 1393h398l284 -650l277 650h379l-658 -1407q-4 -9 -12 -9t-12 9z" />
<glyph unicode="W" horiz-adv-x="1916" d="M8 1393h391l260 -654l299 680q3 7 8.5 7t8.5 -7l313 -680l248 654h373l-576 -1409q-5 -12 -11.5 -12t-12.5 12l-348 747l-345 -747q-4 -10 -12 -10t-12 10z" />
<glyph unicode="X" horiz-adv-x="1406" d="M18 0l482 748l-406 645h416l207 -353l209 353h387l-404 -629l480 -764h-416l-281 471l-286 -471h-388z" />
<glyph unicode="Y" horiz-adv-x="1445" d="M8 1393h410l315 -568l314 568h391l-525 -901v-492h-372v481z" />
<glyph unicode="Z" horiz-adv-x="1255" d="M23 20l616 1059h-512v314h1083q20 0 7 -21l-617 -1059h565v-313h-1136q-18 0 -6 20z" />
<glyph unicode="[" horiz-adv-x="733" d="M121 0v1393h543v-295h-191v-803h191v-295h-543z" />
<glyph unicode="\" horiz-adv-x="1005" d="M39 1393h340l588 -1393h-340z" />
<glyph unicode="]" horiz-adv-x="733" d="M70 0v295h190v803h-190v295h542v-1393h-542z" />
<glyph unicode="^" horiz-adv-x="647" d="M74 438v297h499v-297h-499z" />
<glyph unicode="_" horiz-adv-x="716" d="M-4 -76h725v-301h-725v301z" />
<glyph unicode="`" horiz-adv-x="1024" d="M221 1851h385l82 -372h-272z" />
<glyph unicode="a" horiz-adv-x="1394" d="M8 0l678 1417q4 11 12 11t13 -11l675 -1417h-385l-53 119h-1h-1h-1h-1h-1h-1h-1h-1h-1h-1h-1h-1h-1h-1h-1h-1h-1h-1h-1h-1h-1h-1h-1h-1h-1h-1h-1h-1h-1h-1h-1h-1h-1h-1h-1h-1h-1h-1h-1h-1h-1h-1h-1h-1h-1h-1h-1h-1h-1h-1h-1h-1h-1h-1h-1h-1h-1h-1h-1h-1h-1h-1h-1h-1h-1 h-1h-1h-1h-1h-1h-1h-1h-1h-1h-1h-1h-1h-1h-1h-1h-1h-1h-1h-1h-1h-1h-1h-1h-1h-1h-1h-1h-1h-1h-1h-1h-2h-1h-1h-1h-1h-1h-1h-1h-1h-1h-1h-2h-1h-1h-1h-1h-1h-1h-1h-2h-1h-1h-1h-1h-1h-1h-2h-1h-1h-1h-1h-2h-1h-1h-1h-1h-2h-1h-1h-1h-1h-2h-1h-1h-1h-2h-1h-1h-1h-2h-1h-1h-1 h-2h-1h-1h-1h-2h-1h-1h-2h-1h-1h-1h-2h-1h-1h-2h-1h-1h-2h-1h-1h-2h-1h-1h-2h-1h-1h-2h-1h-1h-2h-1h-2h-1h-1h-2h-1h-1h-2h-1h-2h-1h-1h-2h-1h-2h-1h-1h-2h-1h-2h-1h-2h-1h-1h-2h-1h-2h-1h-2h-1h-2h-1h-1h-2h-1h-2h-1h-2h-1h-2h-1h-2h-1h-2h-1h-2h-1h-2h-1h-2h-1h-2h-1h-2 h-1h-2h-1h-2h-2h-1h-2h-1h-2h-1h-2h-1h-2h-1h-2h-2h-1h-2h-1h-2h-1h-2h-2h-1h-2h-1h-2h-2h-1h-2h-1h-2h-2h-1h-2h-2h-1h-2h-1h-2h-2h-1h-2h-2h-1h-2h-2h-1h-2h-1h-2h-2h-1h-2h-2h-1h-2h-2h-2h-1h-2h-2h-1h-2h-2h-1h-2h-2h-1h-2h-2h-2h-1h-2h-2h-1h-2h-2h-2h-1h-2h-2h-2h-1 h-2h-2h-2h-1h-2h-2h-2h-1h-2h-2h-2h-2h-1h-2h-2h-2h-1h-2h-2h-2h-2h-2h-1h-2h-2h-2h-2h-1h-2h-2h-2h-2h-2h-1h-2h-2h-2h-2h-2h-1h-2h-2h-2h-2h-2h-2h-1h-2h-2h-2h-2h-2h-2h-2h-1h-2h-9l-51 -119h-365zM543 397h282l-143 324z" />
<glyph unicode="b" horiz-adv-x="1306" d="M121 0v1393h569q209 0 333 -91t124 -249q0 -109 -42.5 -172t-117.5 -99q126 -36 203.5 -125t77.5 -239q0 -199 -146 -308.5t-407 -109.5h-594zM481 295h226q102 0 145 40.5t43 117.5q0 76 -43.5 115.5t-144.5 39.5h-226v-313zM481 879h181q118 0 118 106q0 113 -114 113 h-185v-219z" />
<glyph unicode="c" horiz-adv-x="1413" d="M53 696q0 204 98.5 369t259.5 254.5t347 89.5q399 0 602 -299l-281 -190q-107 165 -315 165q-150 0 -240 -110.5t-90 -278.5q0 -169 93 -280t249 -111q126 0 202.5 50.5t125.5 142.5l287 -185q-102 -172 -250.5 -251.5t-362.5 -79.5q-145 0 -278 53t-231.5 146t-157 227 t-58.5 288z" />
<glyph unicode="d" horiz-adv-x="1409" d="M121 0v1393h538q201 0 360 -83t252 -243t93 -371t-93 -370.5t-252 -242.5t-360 -83h-538zM494 315h124q168 0 266.5 103.5t98.5 277.5t-98.5 277.5t-266.5 103.5h-124v-762z" />
<glyph unicode="e" horiz-adv-x="1185" d="M121 0v1393h977v-314h-604v-323h503v-297h-503v-146h632v-313h-1005z" />
<glyph unicode="f" horiz-adv-x="1130" d="M121 0v1393h946v-314h-573v-323h505v-314h-505v-442h-373z" />
<glyph unicode="g" horiz-adv-x="1517" d="M53 696q0 154 57.5 288t155.5 226.5t230 145.5t278 53q199 0 353.5 -82.5t236.5 -230.5l-297 -181q-96 170 -299 170q-160 0 -247 -109t-87 -280q0 -112 38.5 -199.5t118.5 -140.5t191 -53q122 0 189.5 41.5t101.5 124.5h-268v287h657q0 -1 1 -22t1 -38 q0 -348 -183.5 -532t-500.5 -184q-147 0 -280 53.5t-231.5 146.5t-157 227.5t-58.5 288.5z" />
<glyph unicode="h" horiz-adv-x="1470" d="M121 0v1393h373v-637h483v637h373v-1393h-373v442h-483v-442h-373z" />
<glyph unicode="i" horiz-adv-x="630" d="M129 0v1393h373v-1393h-373z" />
<glyph unicode="j" horiz-adv-x="995" d="M12 211l281 180q27 -45 53.5 -68.5t69.5 -23.5q96 0 96 119v975h373v-1002q0 -196 -112 -303.5t-314 -107.5q-324 0 -447 231z" />
<glyph unicode="k" horiz-adv-x="1374" d="M121 0v1393h373v-635l428 635h413q-549 -783 -551 -783l578 -610h-483l-385 420v-420h-373z" />
<glyph unicode="l" horiz-adv-x="1136" d="M121 0v1393h373v-1080h591v-313h-964z" />
<glyph unicode="m" horiz-adv-x="1699" d="M121 0v1417q0 6 2.5 8.5t6.5 1.5t9 -6l715 -690l707 690q4 4 8 5t7 -1.5t3 -7.5v-1417h-373v641l-350 -346q-6 -6 -9 -6t-9 6l-344 346v-641h-373z" />
<glyph unicode="n" horiz-adv-x="1495" d="M121 0v1411q0 27 29 4l874 -721v699h350v-1413q0 -27 -28 -5l-875 719v-694h-350z" />
<glyph unicode="o" horiz-adv-x="1601" d="M53 696q0 204 103.5 369t274 254.5t370.5 89.5q149 0 285.5 -53t238.5 -145.5t162.5 -226.5t60.5 -288t-60.5 -288.5t-162.5 -227t-238.5 -145.5t-285.5 -53t-285.5 53t-239 145.5t-163 227t-60.5 288.5zM434 696q0 -170 98.5 -280.5t268.5 -110.5t268 110.5t98 280.5 t-98 279.5t-268 109.5t-268.5 -110t-98.5 -279z" />
<glyph unicode="p" horiz-adv-x="1286" d="M121 0v1393h528q138 0 249.5 -42t184.5 -115.5t112.5 -173.5t39.5 -216t-39.5 -215.5t-112.5 -173t-184.5 -115t-249.5 -41.5h-155v-301h-373zM494 616h137q229 0 229 230q0 231 -229 231h-137v-461z" />
<glyph unicode="q" horiz-adv-x="1601" d="M53 696q0 204 103.5 369t274 254.5t370.5 89.5q149 0 285.5 -53t238.5 -145.5t162.5 -226.5t60.5 -288q0 -253 -168 -448l166 -166l-215 -215l-192 192q-160 -77 -338 -77q-149 0 -285.5 53t-239 145.5t-163 227t-60.5 288.5zM434 696q0 -182 97.5 -291.5t269.5 -109.5 q46 0 94 10l-129 129l217 215l147 -149q37 84 37 196q0 170 -98 279.5t-268 109.5t-268.5 -110t-98.5 -279z" />
<glyph unicode="r" horiz-adv-x="1288" d="M121 0v1393h528q138 0 249.5 -42t184.5 -115.5t112.5 -173.5t39.5 -216q0 -151 -64.5 -267.5t-187.5 -183.5l248 -395h-404l-194 319h-139v-319h-373zM494 616h137q229 0 229 230q0 231 -229 231h-137v-461z" />
<glyph unicode="s" horiz-adv-x="1163" d="M8 238l271 202q58 -72 126 -111.5t164 -39.5q176 0 176 110q0 42 -32 68t-105 51l-164 55q-346 116 -346 420q0 80 25.5 148t70 117t105 83.5t130 51t144.5 16.5q306 0 463 -184l-213 -224q-48 50 -100 75.5t-129 25.5q-65 0 -100 -26.5t-35 -69.5q0 -39 23 -62t75 -41 l184 -61q203 -67 288 -168t85 -254q0 -202 -131 -321t-397 -119q-112 0 -209 23.5t-167 63.5t-118 81.5t-84 89.5z" />
<glyph unicode="t" horiz-adv-x="1204" d="M47 1079v314h1110v-314h-369v-1079h-372v1079h-369z" />
<glyph unicode="u" horiz-adv-x="1421" d="M106 539v854h373v-850q0 -121 57.5 -184.5t174.5 -63.5q231 0 231 248v850h373v-854q0 -110 -29.5 -201.5t-83 -157.5t-128.5 -111t-166.5 -67t-196.5 -22q-132 0 -241.5 35t-191 103t-127 176t-45.5 245z" />
<glyph unicode="v" horiz-adv-x="1353" d="M8 1393h398l284 -650l277 650h379l-658 -1407q-4 -9 -12 -9t-12 9z" />
<glyph unicode="w" horiz-adv-x="1916" d="M8 1393h391l260 -654l299 680q3 7 8.5 7t8.5 -7l313 -680l248 654h373l-576 -1409q-5 -12 -11.5 -12t-12.5 12l-348 747l-345 -747q-4 -10 -12 -10t-12 10z" />
<glyph unicode="x" horiz-adv-x="1384" d="M18 0l482 748l-406 645h416l207 -353l209 353h387l-404 -629l480 -764h-416l-281 471l-286 -471h-388z" />
<glyph unicode="y" horiz-adv-x="1445" d="M8 1393h410l315 -568l314 568h391l-525 -901v-492h-372v481z" />
<glyph unicode="z" horiz-adv-x="1255" d="M23 20l616 1059h-512v314h1083q20 0 7 -21l-617 -1059h565v-313h-1136q-18 0 -6 20z" />
<glyph unicode="{" horiz-adv-x="847" d="M55 549v295h82q51 0 75 26t24 82v166q0 73 25 128t68 86t93.5 46t107.5 15h248v-295h-129q-31 0 -46 -14.5t-15 -51.5v-162q0 -149 -139 -174q139 -25 139 -174v-162q0 -37 15 -51t46 -14h129v-295h-248q-57 0 -107.5 15t-93.5 45.5t-68 85.5t-25 128v166q0 109 -99 109 h-82z" />
<glyph unicode="|" horiz-adv-x="520" d="M102 -143v1679h316v-1679h-316z" />
<glyph unicode="}" horiz-adv-x="847" d="M70 0v295h129q31 0 46 14t15 51v162q0 149 139 174q-139 25 -139 174v162q0 37 -15 51.5t-46 14.5h-129v295h247q57 0 107.5 -15t94 -46t68.5 -86t25 -128v-166q0 -56 24 -82t75 -26h82v-295h-82q-99 0 -99 -109v-166q0 -73 -25 -128t-68.5 -85.5t-94 -45.5t-107.5 -15 h-247z" />
<glyph unicode="~" horiz-adv-x="991" d="M45 424q23 163 109 260.5t194 97.5q58 0 111.5 -20.5t91 -41t59.5 -20.5q53 0 72 74l264 -35q-23 -163 -109 -260.5t-194 -97.5q-58 0 -111.5 20.5t-91 41t-59.5 20.5q-53 0 -72 -74z" />
<glyph unicode="&#xa1;" horiz-adv-x="618" d="M104 1212q0 87 61.5 144t143.5 57q84 0 144.5 -57t60.5 -144t-60.5 -143.5t-144.5 -56.5q-82 0 -143.5 56.5t-61.5 143.5zM117 0l41 922h303l41 -922h-385z" />
<glyph unicode="&#xa2;" horiz-adv-x="1017" d="M53 686q0 193 128 329.5t323 158.5v217h149v-217q206 -22 326 -175l-231 -196q-36 53 -95 71v-1v-1v-1v-1v-1v-1v-1v-1v-1v-1v-1v-1v-1v-1v-1v-1v-1v-1v-1v-1v-1v-1v-1v-1v-1v-1v-1v-1v-1v-1v-1v-1v-1v-1v-1v-1v-1v-1v-1v-1v-1v-1v-1v-1v-1v-1v-1v-1v-1v-1v-1v-1v-1v-1 v-1v-1v-1v-1v-1v-1v-1v-1v-1v-1v-1v-1v-1v-2v-1v-1v-1v-1v-1v-1v-1v-1v-1v-1v-1v-2v-1v-1v-1v-1v-1v-1v-2v-1v-1v-1v-1v-1v-2v-1v-1v-1v-1v-2v-1v-1v-1v-1v-2v-1v-1v-1v-2v-1v-1v-1v-2v-1v-1v-2v-1v-1v-2v-1v-1v-1v-2v-1v-1v-2v-1v-1v-2v-1v-2v-1v-1v-2v-1v-1v-2v-1v-2v-1 v-1v-2v-1v-2v-1v-1v-2v-1v-2v-1v-2v-1v-1v-2v-1v-2v-1v-2v-1v-2v-1v-2v-1v-2v-1v-2v-1v-2v-1v-2v-1v-2v-1v-2v-1v-2v-1v-2v-1v-2v-2v-1v-2v-1v-2v-1v-2v-2v-1v-2v-1v-2v-2v-1v-2v-1v-2v-2v-1v-2v-2v-1v-2v-1v-2v-2v-1v-2v-2v-1v-2v-2v-1v-2v-2v-1v-2v-2v-1v-2v-2v-2v-1v-2 v-2v-1v-2v-2v-2v-1v-2v-2v-2v-1v-2v-2v-2v-1v-2v-2v-2v-1v-2v-2v-2v-2v-1v-2v-2v-2v-2v-1v-2v-2v-2v-2v-2v-1v-2v-2v-2v-2v-2v-1v-2v-2v-2v-2v-2v-2v-1v-2v-10q53 15 103 65l233 -195q-127 -143 -336 -163v-199h-149v199q-196 24 -323.5 159t-127.5 328zM393 686 q0 -69 29 -117.5t82 -70.5v372q-52 -22 -81.5 -70t-29.5 -114z" />
<glyph unicode="&#xa3;" horiz-adv-x="1300" d="M25 236q0 120 78.5 188t183.5 68q67 0 145 -19q-5 19 -33 86h-231v252h108q-40 91 -40 186q0 78 31 150.5t89.5 131.5t154.5 94.5t214 35.5q168 0 281.5 -70t173.5 -186l-283 -178q-36 63 -72 91t-100 28q-61 0 -94 -32t-33 -83q0 -61 35 -168h334v-252h-246 q33 -109 33 -197v-24q71 -39 161 -39q69 0 110 16t81 54l201 -236q-74 -83 -162 -118t-203 -35q-158 0 -315 104q-119 -104 -295 -104q-80 0 -147.5 25.5t-113.5 85t-46 145.5zM260 236q0 -20 17.5 -33t48.5 -13q60 0 110 50q-67 41 -108 41q-32 0 -50 -12.5t-18 -32.5z" />
<glyph unicode="&#xa5;" horiz-adv-x="1482" d="M27 1393h401l326 -582l321 582h381l-383 -635h258v-254h-405v-90h405v-254h-405v-160h-365v160h-393v254h393v90h-393v254h244z" />
<glyph unicode="&#xa6;" d="M74 631q0 87 60.5 143.5t144.5 56.5q82 0 143 -56.5t61 -143.5t-61 -144t-143 -57q-84 0 -144.5 57t-60.5 144z" />
<glyph unicode="&#xa7;" horiz-adv-x="1210" d="M57 524q0 93 55.5 160.5t137.5 106.5q-84 100 -84 233q0 77 28.5 145.5t82 122.5t139.5 85.5t192 31.5q294 0 432 -221l-258 -180q-35 45 -72 67.5t-94 22.5q-94 0 -94 -64q0 -48 82 -71l221 -64q184 -52 256 -145.5t72 -233.5q0 -85 -42.5 -145t-131.5 -111 q68 -100 68 -221q0 -159 -130 -254.5t-344 -95.5q-317 0 -489 184l231 221q39 -39 101.5 -65.5t132.5 -26.5q68 0 98.5 14.5t30.5 49.5q0 24 -19.5 37t-64.5 24l-201 53q-189 50 -262.5 132.5t-73.5 207.5zM377 600q0 -62 88 -84l235 -65q30 -8 91 -33q43 14 43 65 q0 36 -19.5 57.5t-69.5 34.5l-251 68q-31 8 -82 29q-35 -20 -35 -72z" />
<glyph unicode="&#xa8;" horiz-adv-x="1024" d="M152 1632q0 68 49.5 116t113.5 48q65 0 113.5 -48t48.5 -116t-48.5 -116t-113.5 -48q-64 0 -113.5 48t-49.5 116zM547 1632q0 67 49.5 115.5t112.5 48.5q65 0 114 -48t49 -116t-49 -116t-114 -48q-63 0 -112.5 48.5t-49.5 115.5z" />
<glyph unicode="&#xa9;" horiz-adv-x="1552" d="M61 696q0 151 58 284.5t155 227t228 147.5t274 54t274 -54t228 -147.5t155 -227t58 -284.5q0 -201 -98.5 -365.5t-262 -255.5t-354.5 -91t-354.5 91t-262 255.5t-98.5 365.5zM209 696q0 -121 45 -228t121 -182t180.5 -118t220.5 -43t220.5 43t180.5 118t121 182t45 228 q0 162 -76 293.5t-206 205t-285 73.5t-285 -73.5t-206 -205t-76 -293.5zM338 696q0 124 60.5 226t161.5 158.5t220 56.5q223 0 340 -168l-225 -183q-44 60 -109 60q-64 0 -100.5 -41.5t-36.5 -108.5q0 -65 37.5 -105t101.5 -40q71 0 117 61l232 -174q-119 -178 -357 -178 q-119 0 -220 55.5t-161.5 156t-60.5 224.5z" />
<glyph unicode="&#xaa;" horiz-adv-x="942" d="M16 539l445 856q5 9 11 9t11 -9l443 -856h-299l-29 65h-268q1 0 -6 -16l-14 -32l-7 -17h-287zM408 786h112l-57 134z" />
<glyph unicode="&#xab;" horiz-adv-x="1046" d="M39 502q-3 8 0 16l168 356h344l-170 -364l170 -369h-344zM504 502q-3 8 0 16l168 356h344l-170 -364l170 -369h-344z" />
<glyph unicode="&#xac;" d="M74 631q0 87 60.5 143.5t144.5 56.5q82 0 143 -56.5t61 -143.5t-61 -144t-143 -57q-84 0 -144.5 57t-60.5 144z" />
<glyph unicode="&#xad;" horiz-adv-x="647" d="M74 438v297h499v-297h-499z" />
<glyph unicode="&#xae;" horiz-adv-x="800" d="M53 1069q0 148 100.5 245t245.5 97q147 0 248 -96.5t101 -245.5q0 -146 -101.5 -243t-247.5 -97q-144 0 -245 97t-101 243zM135 1069q0 -115 74.5 -189.5t189.5 -74.5q116 0 192.5 74.5t76.5 189.5q0 119 -76 193.5t-193 74.5q-116 0 -190 -74.5t-74 -193.5zM256 891v364 h150q73 0 118 -41t45 -94q0 -76 -65 -116l61 -113h-125l-47 88h-20v-88h-117zM373 1073h30q48 0 48 41q0 39 -48 39h-30v-80z" />
<glyph unicode="&#xaf;" horiz-adv-x="1024" d="M262 1479v258h500v-258h-500z" />
<glyph unicode="&#xb0;" horiz-adv-x="698" d="M37 1116q0 124 91 208.5t222 84.5t221.5 -84.5t90.5 -208.5q0 -122 -91 -208.5t-221 -86.5t-221.5 86.5t-91.5 208.5zM250 1116q0 -47 27.5 -75.5t72.5 -28.5q43 0 71 28.5t28 75.5q0 44 -28 73.5t-71 29.5q-44 0 -72 -29t-28 -74z" />
<glyph unicode="&#xb2;" d="M74 631q0 87 60.5 143.5t144.5 56.5q82 0 143 -56.5t61 -143.5t-61 -144t-143 -57q-84 0 -144.5 57t-60.5 144z" />
<glyph unicode="&#xb3;" d="M74 631q0 87 60.5 143.5t144.5 56.5q82 0 143 -56.5t61 -143.5t-61 -144t-143 -57q-84 0 -144.5 57t-60.5 144z" />
<glyph unicode="&#xb4;" horiz-adv-x="1024" d="M336 1479l82 372h385l-195 -372h-272z" />
<glyph unicode="&#xb5;" d="M74 631q0 87 60.5 143.5t144.5 56.5q82 0 143 -56.5t61 -143.5t-61 -144t-143 -57q-84 0 -144.5 57t-60.5 144z" />
<glyph unicode="&#xb6;" horiz-adv-x="1374" d="M45 967q0 112 55 209.5t156.5 157t226.5 59.5h770v-1393h-321v1100h-111v-1100h-321v541h-17q-125 0 -226.5 59.5t-156.5 157t-55 209.5z" />
<glyph unicode="&#xb7;" d="M74 631q0 87 60.5 143.5t144.5 56.5q82 0 143 -56.5t61 -143.5t-61 -144t-143 -57q-84 0 -144.5 57t-60.5 144z" />
<glyph unicode="&#xb8;" horiz-adv-x="1024" d="M266 -352l146 96q25 -49 75 -49q60 0 60 51q0 53 -74 53h-72v201h168v-66q78 -13 128.5 -67t50.5 -141q0 -89 -69.5 -145t-158.5 -56q-178 0 -254 123z" />
<glyph unicode="&#xb9;" d="M74 631q0 87 60.5 143.5t144.5 56.5q82 0 143 -56.5t61 -143.5t-61 -144t-143 -57q-84 0 -144.5 57t-60.5 144z" />
<glyph unicode="&#xba;" horiz-adv-x="1007" d="M37 967q0 127 64.5 229t171 157.5t231.5 55.5q124 0 230.5 -55.5t171.5 -158t65 -228.5t-65 -229.5t-171.5 -159.5t-230.5 -56q-93 0 -178.5 33.5t-149 91.5t-101.5 141.5t-38 178.5zM334 967q0 -79 45.5 -131t124.5 -52t124.5 52t45.5 131q0 78 -45.5 129t-124.5 51 t-124.5 -51t-45.5 -129z" />
<glyph unicode="&#xbb;" horiz-adv-x="1046" d="M31 141l170 365l-170 368h344l168 -360q3 -8 0 -16l-168 -357h-344zM496 141l170 365l-170 368h344l168 -360q3 -8 0 -16l-168 -357h-344z" />
<glyph unicode="&#xbc;" d="M74 631q0 87 60.5 143.5t144.5 56.5q82 0 143 -56.5t61 -143.5t-61 -144t-143 -57q-84 0 -144.5 57t-60.5 144z" />
<glyph unicode="&#xbd;" d="M74 631q0 87 60.5 143.5t144.5 56.5q82 0 143 -56.5t61 -143.5t-61 -144t-143 -57q-84 0 -144.5 57t-60.5 144z" />
<glyph unicode="&#xbe;" d="M74 631q0 87 60.5 143.5t144.5 56.5q82 0 143 -56.5t61 -143.5t-61 -144t-143 -57q-84 0 -144.5 57t-60.5 144z" />
<glyph unicode="&#xbf;" horiz-adv-x="1062" d="M45 379q0 174 85.5 275.5t264.5 136.5v127h344v-361h-151q-84 0 -126 -36.5t-42 -104.5q0 -61 39 -95t104 -34q124 0 189 121l288 -158q-58 -120 -185 -195t-308 -75q-226 0 -364 111.5t-138 287.5zM365 1208q0 87 61 144t143 57q84 0 144.5 -57t60.5 -144t-60.5 -143.5 t-144.5 -56.5q-82 0 -143 56.5t-61 143.5z" />
<glyph unicode="&#xc0;" horiz-adv-x="1394" d="M8 0l678 1417q4 11 12 11t13 -11l675 -1417h-385l-53 119h-1h-1h-1h-1h-1h-1h-1h-1h-1h-1h-1h-1h-1h-1h-1h-1h-1h-1h-1h-1h-1h-1h-1h-1h-1h-1h-1h-1h-1h-1h-1h-1h-1h-1h-1h-1h-1h-1h-1h-1h-1h-1h-1h-1h-1h-1h-1h-1h-1h-1h-1h-1h-1h-1h-1h-1h-1h-1h-1h-1h-1h-1h-1h-1h-1 h-1h-1h-1h-1h-1h-1h-1h-1h-1h-1h-1h-1h-1h-1h-1h-1h-1h-1h-1h-1h-1h-1h-1h-1h-1h-1h-1h-1h-1h-1h-1h-2h-1h-1h-1h-1h-1h-1h-1h-1h-1h-1h-2h-1h-1h-1h-1h-1h-1h-1h-2h-1h-1h-1h-1h-1h-1h-2h-1h-1h-1h-1h-2h-1h-1h-1h-1h-2h-1h-1h-1h-1h-2h-1h-1h-1h-2h-1h-1h-1h-2h-1h-1h-1 h-2h-1h-1h-1h-2h-1h-1h-2h-1h-1h-1h-2h-1h-1h-2h-1h-1h-2h-1h-1h-2h-1h-1h-2h-1h-1h-2h-1h-1h-2h-1h-2h-1h-1h-2h-1h-1h-2h-1h-2h-1h-1h-2h-1h-2h-1h-1h-2h-1h-2h-1h-2h-1h-1h-2h-1h-2h-1h-2h-1h-2h-1h-1h-2h-1h-2h-1h-2h-1h-2h-1h-2h-1h-2h-1h-2h-1h-2h-1h-2h-1h-2h-1h-2 h-1h-2h-1h-2h-2h-1h-2h-1h-2h-1h-2h-1h-2h-1h-2h-2h-1h-2h-1h-2h-1h-2h-2h-1h-2h-1h-2h-2h-1h-2h-1h-2h-2h-1h-2h-2h-1h-2h-1h-2h-2h-1h-2h-2h-1h-2h-2h-1h-2h-1h-2h-2h-1h-2h-2h-1h-2h-2h-2h-1h-2h-2h-1h-2h-2h-1h-2h-2h-1h-2h-2h-2h-1h-2h-2h-1h-2h-2h-2h-1h-2h-2h-2h-1 h-2h-2h-2h-1h-2h-2h-2h-1h-2h-2h-2h-2h-1h-2h-2h-2h-1h-2h-2h-2h-2h-2h-1h-2h-2h-2h-2h-1h-2h-2h-2h-2h-2h-1h-2h-2h-2h-2h-2h-1h-2h-2h-2h-2h-2h-2h-1h-2h-2h-2h-2h-2h-2h-2h-1h-2h-9l-51 -119h-365zM364 1851h385l82 -372h-272zM543 397h282l-143 324z" />
<glyph unicode="&#xc1;" horiz-adv-x="1394" d="M8 0l678 1417q4 11 12 11t13 -11l675 -1417h-385l-53 119h-1h-1h-1h-1h-1h-1h-1h-1h-1h-1h-1h-1h-1h-1h-1h-1h-1h-1h-1h-1h-1h-1h-1h-1h-1h-1h-1h-1h-1h-1h-1h-1h-1h-1h-1h-1h-1h-1h-1h-1h-1h-1h-1h-1h-1h-1h-1h-1h-1h-1h-1h-1h-1h-1h-1h-1h-1h-1h-1h-1h-1h-1h-1h-1h-1 h-1h-1h-1h-1h-1h-1h-1h-1h-1h-1h-1h-1h-1h-1h-1h-1h-1h-1h-1h-1h-1h-1h-1h-1h-1h-1h-1h-1h-1h-1h-1h-2h-1h-1h-1h-1h-1h-1h-1h-1h-1h-1h-2h-1h-1h-1h-1h-1h-1h-1h-2h-1h-1h-1h-1h-1h-1h-2h-1h-1h-1h-1h-2h-1h-1h-1h-1h-2h-1h-1h-1h-1h-2h-1h-1h-1h-2h-1h-1h-1h-2h-1h-1h-1 h-2h-1h-1h-1h-2h-1h-1h-2h-1h-1h-1h-2h-1h-1h-2h-1h-1h-2h-1h-1h-2h-1h-1h-2h-1h-1h-2h-1h-1h-2h-1h-2h-1h-1h-2h-1h-1h-2h-1h-2h-1h-1h-2h-1h-2h-1h-1h-2h-1h-2h-1h-2h-1h-1h-2h-1h-2h-1h-2h-1h-2h-1h-1h-2h-1h-2h-1h-2h-1h-2h-1h-2h-1h-2h-1h-2h-1h-2h-1h-2h-1h-2h-1h-2 h-1h-2h-1h-2h-2h-1h-2h-1h-2h-1h-2h-1h-2h-1h-2h-2h-1h-2h-1h-2h-1h-2h-2h-1h-2h-1h-2h-2h-1h-2h-1h-2h-2h-1h-2h-2h-1h-2h-1h-2h-2h-1h-2h-2h-1h-2h-2h-1h-2h-1h-2h-2h-1h-2h-2h-1h-2h-2h-2h-1h-2h-2h-1h-2h-2h-1h-2h-2h-1h-2h-2h-2h-1h-2h-2h-1h-2h-2h-2h-1h-2h-2h-2h-1 h-2h-2h-2h-1h-2h-2h-2h-1h-2h-2h-2h-2h-1h-2h-2h-2h-1h-2h-2h-2h-2h-2h-1h-2h-2h-2h-2h-1h-2h-2h-2h-2h-2h-1h-2h-2h-2h-2h-2h-1h-2h-2h-2h-2h-2h-2h-1h-2h-2h-2h-2h-2h-2h-2h-1h-2h-9l-51 -119h-365zM543 397h282l-143 324zM561 1479l82 372h385l-195 -372h-272z" />
<glyph unicode="&#xc2;" horiz-adv-x="1394" d="M8 0l678 1417q4 11 12 11t13 -11l675 -1417h-385l-53 119h-1h-1h-1h-1h-1h-1h-1h-1h-1h-1h-1h-1h-1h-1h-1h-1h-1h-1h-1h-1h-1h-1h-1h-1h-1h-1h-1h-1h-1h-1h-1h-1h-1h-1h-1h-1h-1h-1h-1h-1h-1h-1h-1h-1h-1h-1h-1h-1h-1h-1h-1h-1h-1h-1h-1h-1h-1h-1h-1h-1h-1h-1h-1h-1h-1 h-1h-1h-1h-1h-1h-1h-1h-1h-1h-1h-1h-1h-1h-1h-1h-1h-1h-1h-1h-1h-1h-1h-1h-1h-1h-1h-1h-1h-1h-1h-1h-2h-1h-1h-1h-1h-1h-1h-1h-1h-1h-1h-2h-1h-1h-1h-1h-1h-1h-1h-2h-1h-1h-1h-1h-1h-1h-2h-1h-1h-1h-1h-2h-1h-1h-1h-1h-2h-1h-1h-1h-1h-2h-1h-1h-1h-2h-1h-1h-1h-2h-1h-1h-1 h-2h-1h-1h-1h-2h-1h-1h-2h-1h-1h-1h-2h-1h-1h-2h-1h-1h-2h-1h-1h-2h-1h-1h-2h-1h-1h-2h-1h-1h-2h-1h-2h-1h-1h-2h-1h-1h-2h-1h-2h-1h-1h-2h-1h-2h-1h-1h-2h-1h-2h-1h-2h-1h-1h-2h-1h-2h-1h-2h-1h-2h-1h-1h-2h-1h-2h-1h-2h-1h-2h-1h-2h-1h-2h-1h-2h-1h-2h-1h-2h-1h-2h-1h-2 h-1h-2h-1h-2h-2h-1h-2h-1h-2h-1h-2h-1h-2h-1h-2h-2h-1h-2h-1h-2h-1h-2h-2h-1h-2h-1h-2h-2h-1h-2h-1h-2h-2h-1h-2h-2h-1h-2h-1h-2h-2h-1h-2h-2h-1h-2h-2h-1h-2h-1h-2h-2h-1h-2h-2h-1h-2h-2h-2h-1h-2h-2h-1h-2h-2h-1h-2h-2h-1h-2h-2h-2h-1h-2h-2h-1h-2h-2h-2h-1h-2h-2h-2h-1 h-2h-2h-2h-1h-2h-2h-2h-1h-2h-2h-2h-2h-1h-2h-2h-2h-1h-2h-2h-2h-2h-2h-1h-2h-2h-2h-2h-1h-2h-2h-2h-2h-2h-1h-2h-2h-2h-2h-2h-1h-2h-2h-2h-2h-2h-2h-1h-2h-2h-2h-2h-2h-2h-2h-1h-2h-9l-51 -119h-365zM358 1479l328 430q9 12 18 0l328 -430h-260l-76 80l-78 -80h-260z M543 397h282l-143 324z" />
<glyph unicode="&#xc3;" horiz-adv-x="1394" d="M8 0l678 1417q4 11 12 11t13 -11l675 -1417h-385l-53 119h-1h-1h-1h-1h-1h-1h-1h-1h-1h-1h-1h-1h-1h-1h-1h-1h-1h-1h-1h-1h-1h-1h-1h-1h-1h-1h-1h-1h-1h-1h-1h-1h-1h-1h-1h-1h-1h-1h-1h-1h-1h-1h-1h-1h-1h-1h-1h-1h-1h-1h-1h-1h-1h-1h-1h-1h-1h-1h-1h-1h-1h-1h-1h-1h-1 h-1h-1h-1h-1h-1h-1h-1h-1h-1h-1h-1h-1h-1h-1h-1h-1h-1h-1h-1h-1h-1h-1h-1h-1h-1h-1h-1h-1h-1h-1h-1h-2h-1h-1h-1h-1h-1h-1h-1h-1h-1h-1h-2h-1h-1h-1h-1h-1h-1h-1h-2h-1h-1h-1h-1h-1h-1h-2h-1h-1h-1h-1h-2h-1h-1h-1h-1h-2h-1h-1h-1h-1h-2h-1h-1h-1h-2h-1h-1h-1h-2h-1h-1h-1 h-2h-1h-1h-1h-2h-1h-1h-2h-1h-1h-1h-2h-1h-1h-2h-1h-1h-2h-1h-1h-2h-1h-1h-2h-1h-1h-2h-1h-1h-2h-1h-2h-1h-1h-2h-1h-1h-2h-1h-2h-1h-1h-2h-1h-2h-1h-1h-2h-1h-2h-1h-2h-1h-1h-2h-1h-2h-1h-2h-1h-2h-1h-1h-2h-1h-2h-1h-2h-1h-2h-1h-2h-1h-2h-1h-2h-1h-2h-1h-2h-1h-2h-1h-2 h-1h-2h-1h-2h-2h-1h-2h-1h-2h-1h-2h-1h-2h-1h-2h-2h-1h-2h-1h-2h-1h-2h-2h-1h-2h-1h-2h-2h-1h-2h-1h-2h-2h-1h-2h-2h-1h-2h-1h-2h-2h-1h-2h-2h-1h-2h-2h-1h-2h-1h-2h-2h-1h-2h-2h-1h-2h-2h-2h-1h-2h-2h-1h-2h-2h-1h-2h-2h-1h-2h-2h-2h-1h-2h-2h-1h-2h-2h-2h-1h-2h-2h-2h-1 h-2h-2h-2h-1h-2h-2h-2h-1h-2h-2h-2h-2h-1h-2h-2h-2h-1h-2h-2h-2h-2h-2h-1h-2h-2h-2h-2h-1h-2h-2h-2h-2h-2h-1h-2h-2h-2h-2h-2h-1h-2h-2h-2h-2h-2h-2h-1h-2h-2h-2h-2h-2h-2h-2h-1h-2h-9l-51 -119h-365zM315 1507q21 152 92 230t164 78q44 0 89.5 -20t79.5 -40t50 -20 q25 0 38.5 16.5t23.5 52.5l225 -28q-19 -149 -91.5 -228.5t-164.5 -79.5q-44 0 -89.5 20t-79.5 40t-50 20q-25 0 -38.5 -16.5t-23.5 -52.5zM543 397h282l-143 324z" />
<glyph unicode="&#xc4;" horiz-adv-x="1394" d="M8 0l678 1417q4 11 12 11t13 -11l675 -1417h-385l-53 119h-1h-1h-1h-1h-1h-1h-1h-1h-1h-1h-1h-1h-1h-1h-1h-1h-1h-1h-1h-1h-1h-1h-1h-1h-1h-1h-1h-1h-1h-1h-1h-1h-1h-1h-1h-1h-1h-1h-1h-1h-1h-1h-1h-1h-1h-1h-1h-1h-1h-1h-1h-1h-1h-1h-1h-1h-1h-1h-1h-1h-1h-1h-1h-1h-1 h-1h-1h-1h-1h-1h-1h-1h-1h-1h-1h-1h-1h-1h-1h-1h-1h-1h-1h-1h-1h-1h-1h-1h-1h-1h-1h-1h-1h-1h-1h-1h-2h-1h-1h-1h-1h-1h-1h-1h-1h-1h-1h-2h-1h-1h-1h-1h-1h-1h-1h-2h-1h-1h-1h-1h-1h-1h-2h-1h-1h-1h-1h-2h-1h-1h-1h-1h-2h-1h-1h-1h-1h-2h-1h-1h-1h-2h-1h-1h-1h-2h-1h-1h-1 h-2h-1h-1h-1h-2h-1h-1h-2h-1h-1h-1h-2h-1h-1h-2h-1h-1h-2h-1h-1h-2h-1h-1h-2h-1h-1h-2h-1h-1h-2h-1h-2h-1h-1h-2h-1h-1h-2h-1h-2h-1h-1h-2h-1h-2h-1h-1h-2h-1h-2h-1h-2h-1h-1h-2h-1h-2h-1h-2h-1h-2h-1h-1h-2h-1h-2h-1h-2h-1h-2h-1h-2h-1h-2h-1h-2h-1h-2h-1h-2h-1h-2h-1h-2 h-1h-2h-1h-2h-2h-1h-2h-1h-2h-1h-2h-1h-2h-1h-2h-2h-1h-2h-1h-2h-1h-2h-2h-1h-2h-1h-2h-2h-1h-2h-1h-2h-2h-1h-2h-2h-1h-2h-1h-2h-2h-1h-2h-2h-1h-2h-2h-1h-2h-1h-2h-2h-1h-2h-2h-1h-2h-2h-2h-1h-2h-2h-1h-2h-2h-1h-2h-2h-1h-2h-2h-2h-1h-2h-2h-1h-2h-2h-2h-1h-2h-2h-2h-1 h-2h-2h-2h-1h-2h-2h-2h-1h-2h-2h-2h-2h-1h-2h-2h-2h-1h-2h-2h-2h-2h-2h-1h-2h-2h-2h-2h-1h-2h-2h-2h-2h-2h-1h-2h-2h-2h-2h-2h-1h-2h-2h-2h-2h-2h-2h-1h-2h-2h-2h-2h-2h-2h-2h-1h-2h-9l-51 -119h-365zM131 1245q0 68 50 116t114 48q65 0 113.5 -48t48.5 -116t-48.5 -116 t-113.5 -48q-64 0 -114 48t-50 116zM543 397h282l-143 324zM936 1245q0 67 49.5 115.5t112.5 48.5q66 0 115 -48t49 -116t-49 -116t-115 -48q-63 0 -112.5 48.5t-49.5 115.5z" />
<glyph unicode="&#xc5;" horiz-adv-x="1394" d="M8 0l608 1274q-89 23 -144.5 91.5t-55.5 154.5q0 106 80 182t200 76t200.5 -76t80.5 -182q0 -85 -55 -153t-144 -93l608 -1274h-385l-53 119h-1h-1h-1h-1h-1h-1h-1h-1h-1h-1h-1h-1h-1h-1h-1h-1h-1h-1h-1h-1h-1h-1h-1h-1h-1h-1h-1h-1h-1h-1h-1h-1h-1h-1h-1h-1h-1h-1h-1h-1 h-1h-1h-1h-1h-1h-1h-1h-1h-1h-1h-1h-1h-1h-1h-1h-1h-1h-1h-1h-1h-1h-1h-1h-1h-1h-1h-1h-1h-1h-1h-1h-1h-1h-1h-1h-1h-1h-1h-1h-1h-1h-1h-1h-1h-1h-1h-1h-1h-1h-1h-1h-1h-1h-1h-1h-1h-2h-1h-1h-1h-1h-1h-1h-1h-1h-1h-1h-2h-1h-1h-1h-1h-1h-1h-1h-2h-1h-1h-1h-1h-1h-1h-2h-1 h-1h-1h-1h-2h-1h-1h-1h-1h-2h-1h-1h-1h-1h-2h-1h-1h-1h-2h-1h-1h-1h-2h-1h-1h-1h-2h-1h-1h-1h-2h-1h-1h-2h-1h-1h-1h-2h-1h-1h-2h-1h-1h-2h-1h-1h-2h-1h-1h-2h-1h-1h-2h-1h-1h-2h-1h-2h-1h-1h-2h-1h-1h-2h-1h-2h-1h-1h-2h-1h-2h-1h-1h-2h-1h-2h-1h-2h-1h-1h-2h-1h-2h-1h-2 h-1h-2h-1h-1h-2h-1h-2h-1h-2h-1h-2h-1h-2h-1h-2h-1h-2h-1h-2h-1h-2h-1h-2h-1h-2h-1h-2h-1h-2h-2h-1h-2h-1h-2h-1h-2h-1h-2h-1h-2h-2h-1h-2h-1h-2h-1h-2h-2h-1h-2h-1h-2h-2h-1h-2h-1h-2h-2h-1h-2h-2h-1h-2h-1h-2h-2h-1h-2h-2h-1h-2h-2h-1h-2h-1h-2h-2h-1h-2h-2h-1h-2h-2h-2 h-1h-2h-2h-1h-2h-2h-1h-2h-2h-1h-2h-2h-2h-1h-2h-2h-1h-2h-2h-2h-1h-2h-2h-2h-1h-2h-2h-2h-1h-2h-2h-2h-1h-2h-2h-2h-2h-1h-2h-2h-2h-1h-2h-2h-2h-2h-2h-1h-2h-2h-2h-2h-1h-2h-2h-2h-2h-2h-1h-2h-2h-2h-2h-2h-1h-2h-2h-2h-2h-2h-2h-1h-2h-2h-2h-2h-2h-2h-2h-1h-2h-9 l-51 -119h-365zM543 397h282l-143 324zM616 1520q0 -38 23 -62t57 -24t57 24t23 62t-23 62t-57 24t-57 -24t-23 -62z" />
<glyph unicode="&#xc6;" horiz-adv-x="1996" d="M2 0l1042 1393h865v-314h-604v-323h503v-314h-503v-129h632v-313h-1001v121h-444l-89 -121h-401zM690 393h246v334q-244 -334 -246 -334z" />
<glyph unicode="&#xc7;" horiz-adv-x="1404" d="M53 696q0 204 98.5 369t259.5 254.5t347 89.5q399 0 602 -299l-281 -190q-107 165 -315 165q-150 0 -240 -110.5t-90 -278.5q0 -169 93 -280t249 -111q126 0 202.5 50.5t125.5 142.5l287 -185q-102 -172 -250.5 -251.5t-362.5 -79.5h-18v-48q78 -13 128 -67t50 -141 q0 -89 -69 -145t-158 -56q-177 0 -254 123l145 96q25 -49 76 -49q59 0 59 51q0 53 -73 53h-72v201h18q-117 27 -219 89.5t-177 151t-118 206.5t-43 249z" />
<glyph unicode="&#xc8;" horiz-adv-x="1185" d="M121 0v1393h977v-314h-604v-323h503v-297h-503v-146h632v-313h-1005zM297 1851h385l82 -372h-272z" />
<glyph unicode="&#xc9;" horiz-adv-x="1185" d="M121 0v1393h977v-314h-604v-323h503v-297h-503v-146h632v-313h-1005zM412 1479l82 372h385l-195 -372h-272z" />
<glyph unicode="&#xca;" horiz-adv-x="1185" d="M121 0v1393h977v-314h-604v-323h503v-297h-503v-146h632v-313h-1005zM250 1479l328 430q9 12 18 0l328 -430h-260l-76 80l-78 -80h-260z" />
<glyph unicode="&#xcb;" horiz-adv-x="1185" d="M121 0v1393h977v-314h-604v-323h503v-297h-503v-146h632v-313h-1005zM228 1632q0 68 49.5 116t113.5 48q65 0 113.5 -48t48.5 -116t-48.5 -116t-113.5 -48q-64 0 -113.5 48t-49.5 116zM623 1632q0 67 49.5 115.5t112.5 48.5q65 0 114 -48t49 -116t-49 -116t-114 -48 q-63 0 -112.5 48.5t-49.5 115.5z" />
<glyph unicode="&#xcc;" horiz-adv-x="630" d="M24 1851h385l82 -372h-272zM129 0v1393h373v-1393h-373z" />
<glyph unicode="&#xcd;" horiz-adv-x="630" d="M129 0v1393h373v-1393h-373zM139 1479l82 372h385l-195 -372h-272z" />
<glyph unicode="&#xce;" horiz-adv-x="630" d="M-23 1479l328 430q9 12 18 0l328 -430h-260l-76 80l-78 -80h-260zM129 0v1393h373v-1393h-373z" />
<glyph unicode="&#xcf;" horiz-adv-x="630" d="M-45 1632q0 68 49.5 116t113.5 48q65 0 113.5 -48t48.5 -116t-48.5 -116t-113.5 -48q-64 0 -113.5 48t-49.5 116zM129 0v1393h373v-1393h-373zM350 1632q0 67 49.5 115.5t112.5 48.5q65 0 114 -48t49 -116t-49 -116t-114 -48q-63 0 -112.5 48.5t-49.5 115.5z" />
<glyph unicode="&#xd0;" horiz-adv-x="1409" d="M12 455v301h109v637h538q201 0 360 -83t252 -243t93 -371t-93 -370.5t-252 -242.5t-360 -83h-538v455h-109zM494 315h124q168 0 266.5 103.5t98.5 277.5t-98.5 277.5t-266.5 103.5h-124v-321h262v-301h-262v-140z" />
<glyph unicode="&#xd1;" horiz-adv-x="1495" d="M121 0v1411q0 27 29 4l874 -721v699h350v-1413q0 -27 -28 -5l-875 719v-694h-350zM367 1507q21 152 92 230t164 78q44 0 89.5 -20t79.5 -40t50 -20q25 0 38.5 16.5t23.5 52.5l225 -28q-19 -149 -91.5 -228.5t-164.5 -79.5q-44 0 -89.5 20t-79.5 40t-50 20 q-25 0 -38.5 -16.5t-23.5 -52.5z" />
<glyph unicode="&#xd2;" horiz-adv-x="1601" d="M53 696q0 204 103.5 369t274 254.5t370.5 89.5q149 0 285.5 -53t238.5 -145.5t162.5 -226.5t60.5 -288t-60.5 -288.5t-162.5 -227t-238.5 -145.5t-285.5 -53t-285.5 53t-239 145.5t-163 227t-60.5 288.5zM434 696q0 -170 98.5 -280.5t268.5 -110.5t268 110.5t98 280.5 t-98 279.5t-268 109.5t-268.5 -110t-98.5 -279zM502 1851h385l82 -372h-272z" />
<glyph unicode="&#xd3;" horiz-adv-x="1601" d="M53 696q0 204 103.5 369t274 254.5t370.5 89.5q149 0 285.5 -53t238.5 -145.5t162.5 -226.5t60.5 -288t-60.5 -288.5t-162.5 -227t-238.5 -145.5t-285.5 -53t-285.5 53t-239 145.5t-163 227t-60.5 288.5zM434 696q0 -170 98.5 -280.5t268.5 -110.5t268 110.5t98 280.5 t-98 279.5t-268 109.5t-268.5 -110t-98.5 -279zM617 1479l82 372h385l-195 -372h-272z" />
<glyph unicode="&#xd4;" horiz-adv-x="1601" d="M53 696q0 204 103.5 369t274 254.5t370.5 89.5q149 0 285.5 -53t238.5 -145.5t162.5 -226.5t60.5 -288t-60.5 -288.5t-162.5 -227t-238.5 -145.5t-285.5 -53t-285.5 53t-239 145.5t-163 227t-60.5 288.5zM434 696q0 -170 98.5 -280.5t268.5 -110.5t268 110.5t98 280.5 t-98 279.5t-268 109.5t-268.5 -110t-98.5 -279zM455 1479l328 430q9 12 18 0l328 -430h-260l-76 80l-78 -80h-260z" />
<glyph unicode="&#xd5;" horiz-adv-x="1601" d="M53 696q0 204 103.5 369t274 254.5t370.5 89.5q149 0 285.5 -53t238.5 -145.5t162.5 -226.5t60.5 -288t-60.5 -288.5t-162.5 -227t-238.5 -145.5t-285.5 -53t-285.5 53t-239 145.5t-163 227t-60.5 288.5zM412 1507q21 152 92 230t164 78q44 0 89.5 -20t79.5 -40t50 -20 q25 0 38.5 16.5t23.5 52.5l225 -28q-19 -149 -91.5 -228.5t-164.5 -79.5q-44 0 -89.5 20t-79.5 40t-50 20q-25 0 -38.5 -16.5t-23.5 -52.5zM434 696q0 -170 98.5 -280.5t268.5 -110.5t268 110.5t98 280.5t-98 279.5t-268 109.5t-268.5 -110t-98.5 -279z" />
<glyph unicode="&#xd6;" horiz-adv-x="1585" d="M53 696q0 204 103.5 369t274 254.5t370.5 89.5q149 0 285.5 -53t238.5 -145.5t162.5 -226.5t60.5 -288t-60.5 -288.5t-162.5 -227t-238.5 -145.5t-285.5 -53t-285.5 53t-239 145.5t-163 227t-60.5 288.5zM432 1632q0 68 50 116t114 48q65 0 113.5 -48t48.5 -116 t-48.5 -116t-113.5 -48q-64 0 -114 48t-50 116zM434 696q0 -170 98.5 -280.5t268.5 -110.5t268 110.5t98 280.5t-98 279.5t-268 109.5t-268.5 -110t-98.5 -279zM827 1632q0 67 49.5 115.5t112.5 48.5q66 0 115 -48t49 -116t-49 -116t-115 -48q-63 0 -112.5 48.5t-49.5 115.5 z" />
<glyph unicode="&#xd7;" d="M74 631q0 87 60.5 143.5t144.5 56.5q82 0 143 -56.5t61 -143.5t-61 -144t-143 -57q-84 0 -144.5 57t-60.5 144z" />
<glyph unicode="&#xd8;" horiz-adv-x="1601" d="M39 143l145 142q-131 181 -131 411q0 204 103.5 369t274 254.5t370.5 89.5q232 0 420 -121l147 144l195 -185q-146 -139 -146 -141q131 -181 131 -410q0 -154 -60.5 -288.5t-162.5 -227t-238.5 -145.5t-285.5 -53q-234 0 -420 120l-148 -143zM434 696q0 -80 21 -151 l522 506q-72 34 -176 34q-170 0 -268.5 -110t-98.5 -279zM625 340q75 -35 176 -35q170 0 268 110.5t98 280.5q0 86 -20 150z" />
<glyph unicode="&#xd9;" horiz-adv-x="1421" d="M106 539v854h373v-850q0 -121 57.5 -184.5t174.5 -63.5q231 0 231 248v850h373v-854q0 -110 -29.5 -201.5t-83 -157.5t-128.5 -111t-166.5 -67t-196.5 -22q-132 0 -241.5 35t-191 103t-127 176t-45.5 245zM420 1851h385l82 -372h-272z" />
<glyph unicode="&#xda;" horiz-adv-x="1421" d="M106 539v854h373v-850q0 -121 57.5 -184.5t174.5 -63.5q231 0 231 248v850h373v-854q0 -110 -29.5 -201.5t-83 -157.5t-128.5 -111t-166.5 -67t-196.5 -22q-132 0 -241.5 35t-191 103t-127 176t-45.5 245zM535 1479l82 372h385l-195 -372h-272z" />
<glyph unicode="&#xdb;" horiz-adv-x="1421" d="M106 539v854h373v-850q0 -121 57.5 -184.5t174.5 -63.5q231 0 231 248v850h373v-854q0 -110 -29.5 -201.5t-83 -157.5t-128.5 -111t-166.5 -67t-196.5 -22q-132 0 -241.5 35t-191 103t-127 176t-45.5 245zM373 1479l328 430q9 12 18 0l328 -430h-260l-76 80l-78 -80h-260 z" />
<glyph unicode="&#xdc;" horiz-adv-x="1421" d="M106 539v854h373v-850q0 -121 57.5 -184.5t174.5 -63.5q231 0 231 248v850h373v-854q0 -110 -29.5 -201.5t-83 -157.5t-128.5 -111t-166.5 -67t-196.5 -22q-132 0 -241.5 35t-191 103t-127 176t-45.5 245zM350 1632q0 68 50 116t114 48q65 0 113.5 -48t48.5 -116 t-48.5 -116t-113.5 -48q-64 0 -114 48t-50 116zM745 1632q0 67 49.5 115.5t112.5 48.5q66 0 115 -48t49 -116t-49 -116t-115 -48q-63 0 -112.5 48.5t-49.5 115.5z" />
<glyph unicode="&#xdd;" horiz-adv-x="1445" d="M8 1393h410l315 -568l314 568h391l-525 -901v-492h-372v481zM565 1479l82 372h385l-195 -372h-272z" />
<glyph unicode="&#xde;" horiz-adv-x="1286" d="M121 0v1393h373v-142h155q138 0 249.5 -42t184.5 -115.5t112.5 -173t39.5 -215.5t-39.5 -215.5t-112.5 -173t-184.5 -115t-249.5 -41.5h-155v-160h-373zM494 475h137q229 0 229 230q0 231 -229 231h-137v-461z" />
<glyph unicode="&#xdf;" horiz-adv-x="2326" d="M8 238l271 202q58 -71 125.5 -110t162.5 -39q92 0 135 25t43 83q0 43 -29 67.5t-108 51.5l-164 55q-346 116 -346 420q0 80 25.5 148t70 117t105 83.5t130 51t144.5 16.5q306 0 463 -184l-213 -224q-48 49 -100.5 74t-132.5 25q-131 0 -131 -94q0 -39 23 -62t75 -41 l184 -61q203 -67 288 -168t85 -254q0 -202 -131 -321t-397 -119q-384 0 -578 258zM1171 238l271 202q57 -71 125.5 -110t163.5 -39q92 0 135 25t43 83q0 43 -29 67.5t-108 51.5l-164 55q-346 116 -346 420q0 80 25.5 148t70 117t105 83.5t130 51t144.5 16.5q306 0 463 -184 l-213 -224q-48 49 -101 74t-133 25q-131 0 -131 -94q0 -39 23 -62t75 -41l185 -61q203 -67 287.5 -168t84.5 -254q0 -202 -131 -321t-397 -119q-384 0 -578 258z" />
<glyph unicode="&#xe0;" horiz-adv-x="1394" d="M8 0l678 1417q4 11 12 11t13 -11l675 -1417h-385l-53 119h-1h-1h-1h-1h-1h-1h-1h-1h-1h-1h-1h-1h-1h-1h-1h-1h-1h-1h-1h-1h-1h-1h-1h-1h-1h-1h-1h-1h-1h-1h-1h-1h-1h-1h-1h-1h-1h-1h-1h-1h-1h-1h-1h-1h-1h-1h-1h-1h-1h-1h-1h-1h-1h-1h-1h-1h-1h-1h-1h-1h-1h-1h-1h-1h-1 h-1h-1h-1h-1h-1h-1h-1h-1h-1h-1h-1h-1h-1h-1h-1h-1h-1h-1h-1h-1h-1h-1h-1h-1h-1h-1h-1h-1h-1h-1h-1h-2h-1h-1h-1h-1h-1h-1h-1h-1h-1h-1h-2h-1h-1h-1h-1h-1h-1h-1h-2h-1h-1h-1h-1h-1h-1h-2h-1h-1h-1h-1h-2h-1h-1h-1h-1h-2h-1h-1h-1h-1h-2h-1h-1h-1h-2h-1h-1h-1h-2h-1h-1h-1 h-2h-1h-1h-1h-2h-1h-1h-2h-1h-1h-1h-2h-1h-1h-2h-1h-1h-2h-1h-1h-2h-1h-1h-2h-1h-1h-2h-1h-1h-2h-1h-2h-1h-1h-2h-1h-1h-2h-1h-2h-1h-1h-2h-1h-2h-1h-1h-2h-1h-2h-1h-2h-1h-1h-2h-1h-2h-1h-2h-1h-2h-1h-1h-2h-1h-2h-1h-2h-1h-2h-1h-2h-1h-2h-1h-2h-1h-2h-1h-2h-1h-2h-1h-2 h-1h-2h-1h-2h-2h-1h-2h-1h-2h-1h-2h-1h-2h-1h-2h-2h-1h-2h-1h-2h-1h-2h-2h-1h-2h-1h-2h-2h-1h-2h-1h-2h-2h-1h-2h-2h-1h-2h-1h-2h-2h-1h-2h-2h-1h-2h-2h-1h-2h-1h-2h-2h-1h-2h-2h-1h-2h-2h-2h-1h-2h-2h-1h-2h-2h-1h-2h-2h-1h-2h-2h-2h-1h-2h-2h-1h-2h-2h-2h-1h-2h-2h-2h-1 h-2h-2h-2h-1h-2h-2h-2h-1h-2h-2h-2h-2h-1h-2h-2h-2h-1h-2h-2h-2h-2h-2h-1h-2h-2h-2h-2h-1h-2h-2h-2h-2h-2h-1h-2h-2h-2h-2h-2h-1h-2h-2h-2h-2h-2h-2h-1h-2h-2h-2h-2h-2h-2h-2h-1h-2h-9l-51 -119h-365zM364 1851h385l82 -372h-272zM543 397h282l-143 324z" />
<glyph unicode="&#xe1;" horiz-adv-x="1394" d="M8 0l678 1417q4 11 12 11t13 -11l675 -1417h-385l-53 119h-1h-1h-1h-1h-1h-1h-1h-1h-1h-1h-1h-1h-1h-1h-1h-1h-1h-1h-1h-1h-1h-1h-1h-1h-1h-1h-1h-1h-1h-1h-1h-1h-1h-1h-1h-1h-1h-1h-1h-1h-1h-1h-1h-1h-1h-1h-1h-1h-1h-1h-1h-1h-1h-1h-1h-1h-1h-1h-1h-1h-1h-1h-1h-1h-1 h-1h-1h-1h-1h-1h-1h-1h-1h-1h-1h-1h-1h-1h-1h-1h-1h-1h-1h-1h-1h-1h-1h-1h-1h-1h-1h-1h-1h-1h-1h-1h-2h-1h-1h-1h-1h-1h-1h-1h-1h-1h-1h-2h-1h-1h-1h-1h-1h-1h-1h-2h-1h-1h-1h-1h-1h-1h-2h-1h-1h-1h-1h-2h-1h-1h-1h-1h-2h-1h-1h-1h-1h-2h-1h-1h-1h-2h-1h-1h-1h-2h-1h-1h-1 h-2h-1h-1h-1h-2h-1h-1h-2h-1h-1h-1h-2h-1h-1h-2h-1h-1h-2h-1h-1h-2h-1h-1h-2h-1h-1h-2h-1h-1h-2h-1h-2h-1h-1h-2h-1h-1h-2h-1h-2h-1h-1h-2h-1h-2h-1h-1h-2h-1h-2h-1h-2h-1h-1h-2h-1h-2h-1h-2h-1h-2h-1h-1h-2h-1h-2h-1h-2h-1h-2h-1h-2h-1h-2h-1h-2h-1h-2h-1h-2h-1h-2h-1h-2 h-1h-2h-1h-2h-2h-1h-2h-1h-2h-1h-2h-1h-2h-1h-2h-2h-1h-2h-1h-2h-1h-2h-2h-1h-2h-1h-2h-2h-1h-2h-1h-2h-2h-1h-2h-2h-1h-2h-1h-2h-2h-1h-2h-2h-1h-2h-2h-1h-2h-1h-2h-2h-1h-2h-2h-1h-2h-2h-2h-1h-2h-2h-1h-2h-2h-1h-2h-2h-1h-2h-2h-2h-1h-2h-2h-1h-2h-2h-2h-1h-2h-2h-2h-1 h-2h-2h-2h-1h-2h-2h-2h-1h-2h-2h-2h-2h-1h-2h-2h-2h-1h-2h-2h-2h-2h-2h-1h-2h-2h-2h-2h-1h-2h-2h-2h-2h-2h-1h-2h-2h-2h-2h-2h-1h-2h-2h-2h-2h-2h-2h-1h-2h-2h-2h-2h-2h-2h-2h-1h-2h-9l-51 -119h-365zM543 397h282l-143 324zM561 1479l82 372h385l-195 -372h-272z" />
<glyph unicode="&#xe2;" horiz-adv-x="1394" d="M8 0l678 1417q4 11 12 11t13 -11l675 -1417h-385l-53 119h-1h-1h-1h-1h-1h-1h-1h-1h-1h-1h-1h-1h-1h-1h-1h-1h-1h-1h-1h-1h-1h-1h-1h-1h-1h-1h-1h-1h-1h-1h-1h-1h-1h-1h-1h-1h-1h-1h-1h-1h-1h-1h-1h-1h-1h-1h-1h-1h-1h-1h-1h-1h-1h-1h-1h-1h-1h-1h-1h-1h-1h-1h-1h-1h-1 h-1h-1h-1h-1h-1h-1h-1h-1h-1h-1h-1h-1h-1h-1h-1h-1h-1h-1h-1h-1h-1h-1h-1h-1h-1h-1h-1h-1h-1h-1h-1h-2h-1h-1h-1h-1h-1h-1h-1h-1h-1h-1h-2h-1h-1h-1h-1h-1h-1h-1h-2h-1h-1h-1h-1h-1h-1h-2h-1h-1h-1h-1h-2h-1h-1h-1h-1h-2h-1h-1h-1h-1h-2h-1h-1h-1h-2h-1h-1h-1h-2h-1h-1h-1 h-2h-1h-1h-1h-2h-1h-1h-2h-1h-1h-1h-2h-1h-1h-2h-1h-1h-2h-1h-1h-2h-1h-1h-2h-1h-1h-2h-1h-1h-2h-1h-2h-1h-1h-2h-1h-1h-2h-1h-2h-1h-1h-2h-1h-2h-1h-1h-2h-1h-2h-1h-2h-1h-1h-2h-1h-2h-1h-2h-1h-2h-1h-1h-2h-1h-2h-1h-2h-1h-2h-1h-2h-1h-2h-1h-2h-1h-2h-1h-2h-1h-2h-1h-2 h-1h-2h-1h-2h-2h-1h-2h-1h-2h-1h-2h-1h-2h-1h-2h-2h-1h-2h-1h-2h-1h-2h-2h-1h-2h-1h-2h-2h-1h-2h-1h-2h-2h-1h-2h-2h-1h-2h-1h-2h-2h-1h-2h-2h-1h-2h-2h-1h-2h-1h-2h-2h-1h-2h-2h-1h-2h-2h-2h-1h-2h-2h-1h-2h-2h-1h-2h-2h-1h-2h-2h-2h-1h-2h-2h-1h-2h-2h-2h-1h-2h-2h-2h-1 h-2h-2h-2h-1h-2h-2h-2h-1h-2h-2h-2h-2h-1h-2h-2h-2h-1h-2h-2h-2h-2h-2h-1h-2h-2h-2h-2h-1h-2h-2h-2h-2h-2h-1h-2h-2h-2h-2h-2h-1h-2h-2h-2h-2h-2h-2h-1h-2h-2h-2h-2h-2h-2h-2h-1h-2h-9l-51 -119h-365zM358 1479l328 430q9 12 18 0l328 -430h-260l-76 80l-78 -80h-260z M543 397h282l-143 324z" />
<glyph unicode="&#xe3;" horiz-adv-x="1394" d="M8 0l678 1417q4 11 12 11t13 -11l675 -1417h-385l-53 119h-1h-1h-1h-1h-1h-1h-1h-1h-1h-1h-1h-1h-1h-1h-1h-1h-1h-1h-1h-1h-1h-1h-1h-1h-1h-1h-1h-1h-1h-1h-1h-1h-1h-1h-1h-1h-1h-1h-1h-1h-1h-1h-1h-1h-1h-1h-1h-1h-1h-1h-1h-1h-1h-1h-1h-1h-1h-1h-1h-1h-1h-1h-1h-1h-1 h-1h-1h-1h-1h-1h-1h-1h-1h-1h-1h-1h-1h-1h-1h-1h-1h-1h-1h-1h-1h-1h-1h-1h-1h-1h-1h-1h-1h-1h-1h-1h-2h-1h-1h-1h-1h-1h-1h-1h-1h-1h-1h-2h-1h-1h-1h-1h-1h-1h-1h-2h-1h-1h-1h-1h-1h-1h-2h-1h-1h-1h-1h-2h-1h-1h-1h-1h-2h-1h-1h-1h-1h-2h-1h-1h-1h-2h-1h-1h-1h-2h-1h-1h-1 h-2h-1h-1h-1h-2h-1h-1h-2h-1h-1h-1h-2h-1h-1h-2h-1h-1h-2h-1h-1h-2h-1h-1h-2h-1h-1h-2h-1h-1h-2h-1h-2h-1h-1h-2h-1h-1h-2h-1h-2h-1h-1h-2h-1h-2h-1h-1h-2h-1h-2h-1h-2h-1h-1h-2h-1h-2h-1h-2h-1h-2h-1h-1h-2h-1h-2h-1h-2h-1h-2h-1h-2h-1h-2h-1h-2h-1h-2h-1h-2h-1h-2h-1h-2 h-1h-2h-1h-2h-2h-1h-2h-1h-2h-1h-2h-1h-2h-1h-2h-2h-1h-2h-1h-2h-1h-2h-2h-1h-2h-1h-2h-2h-1h-2h-1h-2h-2h-1h-2h-2h-1h-2h-1h-2h-2h-1h-2h-2h-1h-2h-2h-1h-2h-1h-2h-2h-1h-2h-2h-1h-2h-2h-2h-1h-2h-2h-1h-2h-2h-1h-2h-2h-1h-2h-2h-2h-1h-2h-2h-1h-2h-2h-2h-1h-2h-2h-2h-1 h-2h-2h-2h-1h-2h-2h-2h-1h-2h-2h-2h-2h-1h-2h-2h-2h-1h-2h-2h-2h-2h-2h-1h-2h-2h-2h-2h-1h-2h-2h-2h-2h-2h-1h-2h-2h-2h-2h-2h-1h-2h-2h-2h-2h-2h-2h-1h-2h-2h-2h-2h-2h-2h-2h-1h-2h-9l-51 -119h-365zM315 1507q21 152 92 230t164 78q44 0 89.5 -20t79.5 -40t50 -20 q25 0 38.5 16.5t23.5 52.5l225 -28q-19 -149 -91.5 -228.5t-164.5 -79.5q-44 0 -89.5 20t-79.5 40t-50 20q-25 0 -38.5 -16.5t-23.5 -52.5zM543 397h282l-143 324z" />
<glyph unicode="&#xe4;" horiz-adv-x="1394" d="M8 0l678 1417q4 11 12 11t13 -11l675 -1417h-385l-53 119h-1h-1h-1h-1h-1h-1h-1h-1h-1h-1h-1h-1h-1h-1h-1h-1h-1h-1h-1h-1h-1h-1h-1h-1h-1h-1h-1h-1h-1h-1h-1h-1h-1h-1h-1h-1h-1h-1h-1h-1h-1h-1h-1h-1h-1h-1h-1h-1h-1h-1h-1h-1h-1h-1h-1h-1h-1h-1h-1h-1h-1h-1h-1h-1h-1 h-1h-1h-1h-1h-1h-1h-1h-1h-1h-1h-1h-1h-1h-1h-1h-1h-1h-1h-1h-1h-1h-1h-1h-1h-1h-1h-1h-1h-1h-1h-1h-2h-1h-1h-1h-1h-1h-1h-1h-1h-1h-1h-2h-1h-1h-1h-1h-1h-1h-1h-2h-1h-1h-1h-1h-1h-1h-2h-1h-1h-1h-1h-2h-1h-1h-1h-1h-2h-1h-1h-1h-1h-2h-1h-1h-1h-2h-1h-1h-1h-2h-1h-1h-1 h-2h-1h-1h-1h-2h-1h-1h-2h-1h-1h-1h-2h-1h-1h-2h-1h-1h-2h-1h-1h-2h-1h-1h-2h-1h-1h-2h-1h-1h-2h-1h-2h-1h-1h-2h-1h-1h-2h-1h-2h-1h-1h-2h-1h-2h-1h-1h-2h-1h-2h-1h-2h-1h-1h-2h-1h-2h-1h-2h-1h-2h-1h-1h-2h-1h-2h-1h-2h-1h-2h-1h-2h-1h-2h-1h-2h-1h-2h-1h-2h-1h-2h-1h-2 h-1h-2h-1h-2h-2h-1h-2h-1h-2h-1h-2h-1h-2h-1h-2h-2h-1h-2h-1h-2h-1h-2h-2h-1h-2h-1h-2h-2h-1h-2h-1h-2h-2h-1h-2h-2h-1h-2h-1h-2h-2h-1h-2h-2h-1h-2h-2h-1h-2h-1h-2h-2h-1h-2h-2h-1h-2h-2h-2h-1h-2h-2h-1h-2h-2h-1h-2h-2h-1h-2h-2h-2h-1h-2h-2h-1h-2h-2h-2h-1h-2h-2h-2h-1 h-2h-2h-2h-1h-2h-2h-2h-1h-2h-2h-2h-2h-1h-2h-2h-2h-1h-2h-2h-2h-2h-2h-1h-2h-2h-2h-2h-1h-2h-2h-2h-2h-2h-1h-2h-2h-2h-2h-2h-1h-2h-2h-2h-2h-2h-2h-1h-2h-2h-2h-2h-2h-2h-2h-1h-2h-9l-51 -119h-365zM131 1245q0 68 50 116t114 48q65 0 113.5 -48t48.5 -116t-48.5 -116 t-113.5 -48q-64 0 -114 48t-50 116zM543 397h282l-143 324zM936 1245q0 67 49.5 115.5t112.5 48.5q66 0 115 -48t49 -116t-49 -116t-115 -48q-63 0 -112.5 48.5t-49.5 115.5z" />
<glyph unicode="&#xe5;" horiz-adv-x="1394" d="M8 0l678 1417q4 11 12 11t13 -11l675 -1417h-385l-53 119h-1h-1h-1h-1h-1h-1h-1h-1h-1h-1h-1h-1h-1h-1h-1h-1h-1h-1h-1h-1h-1h-1h-1h-1h-1h-1h-1h-1h-1h-1h-1h-1h-1h-1h-1h-1h-1h-1h-1h-1h-1h-1h-1h-1h-1h-1h-1h-1h-1h-1h-1h-1h-1h-1h-1h-1h-1h-1h-1h-1h-1h-1h-1h-1h-1 h-1h-1h-1h-1h-1h-1h-1h-1h-1h-1h-1h-1h-1h-1h-1h-1h-1h-1h-1h-1h-1h-1h-1h-1h-1h-1h-1h-1h-1h-1h-1h-2h-1h-1h-1h-1h-1h-1h-1h-1h-1h-1h-2h-1h-1h-1h-1h-1h-1h-1h-2h-1h-1h-1h-1h-1h-1h-2h-1h-1h-1h-1h-2h-1h-1h-1h-1h-2h-1h-1h-1h-1h-2h-1h-1h-1h-2h-1h-1h-1h-2h-1h-1h-1 h-2h-1h-1h-1h-2h-1h-1h-2h-1h-1h-1h-2h-1h-1h-2h-1h-1h-2h-1h-1h-2h-1h-1h-2h-1h-1h-2h-1h-1h-2h-1h-2h-1h-1h-2h-1h-1h-2h-1h-2h-1h-1h-2h-1h-2h-1h-1h-2h-1h-2h-1h-2h-1h-1h-2h-1h-2h-1h-2h-1h-2h-1h-1h-2h-1h-2h-1h-2h-1h-2h-1h-2h-1h-2h-1h-2h-1h-2h-1h-2h-1h-2h-1h-2 h-1h-2h-1h-2h-2h-1h-2h-1h-2h-1h-2h-1h-2h-1h-2h-2h-1h-2h-1h-2h-1h-2h-2h-1h-2h-1h-2h-2h-1h-2h-1h-2h-2h-1h-2h-2h-1h-2h-1h-2h-2h-1h-2h-2h-1h-2h-2h-1h-2h-1h-2h-2h-1h-2h-2h-1h-2h-2h-2h-1h-2h-2h-1h-2h-2h-1h-2h-2h-1h-2h-2h-2h-1h-2h-2h-1h-2h-2h-2h-1h-2h-2h-2h-1 h-2h-2h-2h-1h-2h-2h-2h-1h-2h-2h-2h-2h-1h-2h-2h-2h-1h-2h-2h-2h-2h-2h-1h-2h-2h-2h-2h-1h-2h-2h-2h-2h-2h-1h-2h-2h-2h-2h-2h-1h-2h-2h-2h-2h-2h-2h-1h-2h-2h-2h-2h-2h-2h-2h-1h-2h-9l-51 -119h-365zM415 1519q0 106 80.5 182t200.5 76t200.5 -76t80.5 -182 q0 -105 -80.5 -180.5t-200.5 -75.5t-200.5 75.5t-80.5 180.5zM543 397h282l-143 324zM616 1519q0 -38 23 -62t57 -24t57 24t23 62t-23 62t-57 24t-57 -24t-23 -62z" />
<glyph unicode="&#xe6;" horiz-adv-x="1918" d="M8 0l645 1393h801v-314h-582l154 -323h594v-314h-444l61 -129h631v-313h-860l-56 127h-534l-51 -127h-359zM528 399h303l-157 357z" />
<glyph unicode="&#xe7;" horiz-adv-x="1404" d="M53 696q0 204 98.5 369t259.5 254.5t347 89.5q399 0 602 -299l-281 -190q-107 165 -315 165q-150 0 -240 -110.5t-90 -278.5q0 -169 93 -280t249 -111q126 0 202.5 50.5t125.5 142.5l287 -185q-102 -172 -250.5 -251.5t-362.5 -79.5h-18v-48q78 -13 128 -67t50 -141 q0 -89 -69 -145t-158 -56q-177 0 -254 123l145 96q25 -49 76 -49q59 0 59 51q0 53 -73 53h-72v201h18q-117 27 -219 89.5t-177 151t-118 206.5t-43 249z" />
<glyph unicode="&#xe8;" horiz-adv-x="1185" d="M121 0v1393h977v-314h-604v-323h503v-297h-503v-146h632v-313h-1005zM297 1851h385l82 -372h-272z" />
<glyph unicode="&#xe9;" horiz-adv-x="1185" d="M121 0v1393h977v-314h-604v-323h503v-297h-503v-146h632v-313h-1005zM412 1479l82 372h385l-195 -372h-272z" />
<glyph unicode="&#xea;" horiz-adv-x="1185" d="M121 0v1393h977v-314h-604v-323h503v-297h-503v-146h632v-313h-1005zM250 1479l328 430q9 12 18 0l328 -430h-260l-76 80l-78 -80h-260z" />
<glyph unicode="&#xeb;" horiz-adv-x="1185" d="M121 0v1393h977v-314h-604v-323h503v-297h-503v-146h632v-313h-1005zM228 1632q0 68 49.5 116t113.5 48q65 0 113.5 -48t48.5 -116t-48.5 -116t-113.5 -48q-64 0 -113.5 48t-49.5 116zM623 1632q0 67 49.5 115.5t112.5 48.5q65 0 114 -48t49 -116t-49 -116t-114 -48 q-63 0 -112.5 48.5t-49.5 115.5z" />
<glyph unicode="&#xec;" horiz-adv-x="630" d="M24 1851h385l82 -372h-272zM129 0v1393h373v-1393h-373z" />
<glyph unicode="&#xed;" horiz-adv-x="630" d="M129 0v1393h373v-1393h-373zM139 1479l82 372h385l-195 -372h-272z" />
<glyph unicode="&#xee;" horiz-adv-x="630" d="M-23 1479l328 430q9 12 18 0l328 -430h-260l-76 80l-78 -80h-260zM129 0v1393h373v-1393h-373z" />
<glyph unicode="&#xef;" horiz-adv-x="630" d="M-45 1632q0 68 49.5 116t113.5 48q65 0 113.5 -48t48.5 -116t-48.5 -116t-113.5 -48q-64 0 -113.5 48t-49.5 116zM129 0v1393h373v-1393h-373zM350 1632q0 67 49.5 115.5t112.5 48.5q65 0 114 -48t49 -116t-49 -116t-114 -48q-63 0 -112.5 48.5t-49.5 115.5z" />
<glyph unicode="&#xf0;" horiz-adv-x="1409" d="M12 455v301h109v637h538q201 0 360 -83t252 -243t93 -371t-93 -370.5t-252 -242.5t-360 -83h-538v455h-109zM494 315h124q168 0 266.5 103.5t98.5 277.5t-98.5 277.5t-266.5 103.5h-124v-321h262v-301h-262v-140z" />
<glyph unicode="&#xf1;" horiz-adv-x="1495" d="M121 0v1411q0 27 29 4l874 -721v699h350v-1413q0 -27 -28 -5l-875 719v-694h-350zM367 1507q21 152 92 230t164 78q44 0 89.5 -20t79.5 -40t50 -20q25 0 38.5 16.5t23.5 52.5l225 -28q-19 -149 -91.5 -228.5t-164.5 -79.5q-44 0 -89.5 20t-79.5 40t-50 20 q-25 0 -38.5 -16.5t-23.5 -52.5z" />
<glyph unicode="&#xf2;" horiz-adv-x="1601" d="M53 696q0 204 103.5 369t274 254.5t370.5 89.5q149 0 285.5 -53t238.5 -145.5t162.5 -226.5t60.5 -288t-60.5 -288.5t-162.5 -227t-238.5 -145.5t-285.5 -53t-285.5 53t-239 145.5t-163 227t-60.5 288.5zM434 696q0 -170 98.5 -280.5t268.5 -110.5t268 110.5t98 280.5 t-98 279.5t-268 109.5t-268.5 -110t-98.5 -279zM502 1851h385l82 -372h-272z" />
<glyph unicode="&#xf3;" horiz-adv-x="1601" d="M53 696q0 204 103.5 369t274 254.5t370.5 89.5q149 0 285.5 -53t238.5 -145.5t162.5 -226.5t60.5 -288t-60.5 -288.5t-162.5 -227t-238.5 -145.5t-285.5 -53t-285.5 53t-239 145.5t-163 227t-60.5 288.5zM434 696q0 -170 98.5 -280.5t268.5 -110.5t268 110.5t98 280.5 t-98 279.5t-268 109.5t-268.5 -110t-98.5 -279zM617 1479l82 372h385l-195 -372h-272z" />
<glyph unicode="&#xf4;" horiz-adv-x="1601" d="M53 696q0 204 103.5 369t274 254.5t370.5 89.5q149 0 285.5 -53t238.5 -145.5t162.5 -226.5t60.5 -288t-60.5 -288.5t-162.5 -227t-238.5 -145.5t-285.5 -53t-285.5 53t-239 145.5t-163 227t-60.5 288.5zM434 696q0 -170 98.5 -280.5t268.5 -110.5t268 110.5t98 280.5 t-98 279.5t-268 109.5t-268.5 -110t-98.5 -279zM455 1479l328 430q9 12 18 0l328 -430h-260l-76 80l-78 -80h-260z" />
<glyph unicode="&#xf5;" horiz-adv-x="1601" d="M53 696q0 204 103.5 369t274 254.5t370.5 89.5q149 0 285.5 -53t238.5 -145.5t162.5 -226.5t60.5 -288t-60.5 -288.5t-162.5 -227t-238.5 -145.5t-285.5 -53t-285.5 53t-239 145.5t-163 227t-60.5 288.5zM412 1507q21 152 92 230t164 78q44 0 89.5 -20t79.5 -40t50 -20 q25 0 38.5 16.5t23.5 52.5l225 -28q-19 -149 -91.5 -228.5t-164.5 -79.5q-44 0 -89.5 20t-79.5 40t-50 20q-25 0 -38.5 -16.5t-23.5 -52.5zM434 696q0 -170 98.5 -280.5t268.5 -110.5t268 110.5t98 280.5t-98 279.5t-268 109.5t-268.5 -110t-98.5 -279z" />
<glyph unicode="&#xf6;" horiz-adv-x="1601" d="M53 696q0 204 103.5 369t274 254.5t370.5 89.5q149 0 285.5 -53t238.5 -145.5t162.5 -226.5t60.5 -288t-60.5 -288.5t-162.5 -227t-238.5 -145.5t-285.5 -53t-285.5 53t-239 145.5t-163 227t-60.5 288.5zM433 1632q0 68 49.5 116t113.5 48q65 0 113.5 -48t48.5 -116 t-48.5 -116t-113.5 -48q-64 0 -113.5 48t-49.5 116zM434 696q0 -170 98.5 -280.5t268.5 -110.5t268 110.5t98 280.5t-98 279.5t-268 109.5t-268.5 -110t-98.5 -279zM828 1632q0 67 49.5 115.5t112.5 48.5q65 0 114 -48t49 -116t-49 -116t-114 -48q-63 0 -112.5 48.5 t-49.5 115.5z" />
<glyph unicode="&#xf7;" d="M74 631q0 87 60.5 143.5t144.5 56.5q82 0 143 -56.5t61 -143.5t-61 -144t-143 -57q-84 0 -144.5 57t-60.5 144z" />
<glyph unicode="&#xf8;" horiz-adv-x="1601" d="M39 143l145 142q-131 181 -131 411q0 204 103.5 369t274 254.5t370.5 89.5q232 0 420 -121l147 144l195 -185q-146 -139 -146 -141q131 -181 131 -410q0 -154 -60.5 -288.5t-162.5 -227t-238.5 -145.5t-285.5 -53q-234 0 -420 120l-148 -143zM434 696q0 -80 21 -151 l522 506q-72 34 -176 34q-170 0 -268.5 -110t-98.5 -279zM625 340q75 -35 176 -35q170 0 268 110.5t98 280.5q0 86 -20 150z" />
<glyph unicode="&#xf9;" horiz-adv-x="1421" d="M106 539v854h373v-850q0 -121 57.5 -184.5t174.5 -63.5q231 0 231 248v850h373v-854q0 -110 -29.5 -201.5t-83 -157.5t-128.5 -111t-166.5 -67t-196.5 -22q-132 0 -241.5 35t-191 103t-127 176t-45.5 245zM420 1851h385l82 -372h-272z" />
<glyph unicode="&#xfa;" horiz-adv-x="1421" d="M106 539v854h373v-850q0 -121 57.5 -184.5t174.5 -63.5q231 0 231 248v850h373v-854q0 -110 -29.5 -201.5t-83 -157.5t-128.5 -111t-166.5 -67t-196.5 -22q-132 0 -241.5 35t-191 103t-127 176t-45.5 245zM535 1479l82 372h385l-195 -372h-272z" />
<glyph unicode="&#xfb;" horiz-adv-x="1421" d="M106 539v854h373v-850q0 -121 57.5 -184.5t174.5 -63.5q231 0 231 248v850h373v-854q0 -110 -29.5 -201.5t-83 -157.5t-128.5 -111t-166.5 -67t-196.5 -22q-132 0 -241.5 35t-191 103t-127 176t-45.5 245zM373 1479l328 430q9 12 18 0l328 -430h-260l-76 80l-78 -80h-260 z" />
<glyph unicode="&#xfc;" horiz-adv-x="1421" d="M106 539v854h373v-850q0 -121 57.5 -184.5t174.5 -63.5q231 0 231 248v850h373v-854q0 -110 -29.5 -201.5t-83 -157.5t-128.5 -111t-166.5 -67t-196.5 -22q-132 0 -241.5 35t-191 103t-127 176t-45.5 245zM351 1632q0 68 49.5 116t113.5 48q65 0 113.5 -48t48.5 -116 t-48.5 -116t-113.5 -48q-64 0 -113.5 48t-49.5 116zM746 1632q0 67 49.5 115.5t112.5 48.5q65 0 114 -48t49 -116t-49 -116t-114 -48q-63 0 -112.5 48.5t-49.5 115.5z" />
<glyph unicode="&#xfd;" horiz-adv-x="1445" d="M8 1393h410l315 -568l314 568h391l-525 -901v-492h-372v481zM565 1479l82 372h385l-195 -372h-272z" />
<glyph unicode="&#xfe;" horiz-adv-x="1286" d="M121 0v1393h373v-142h155q138 0 249.5 -42t184.5 -115.5t112.5 -173t39.5 -215.5t-39.5 -215.5t-112.5 -173t-184.5 -115t-249.5 -41.5h-155v-160h-373zM494 475h137q229 0 229 230q0 231 -229 231h-137v-461z" />
<glyph unicode="&#xff;" horiz-adv-x="1445" d="M8 1393h410l315 -568l314 568h391l-525 -901v-492h-372v481zM381 1632q0 68 49.5 116t113.5 48q65 0 113.5 -48t48.5 -116t-48.5 -116t-113.5 -48q-64 0 -113.5 48t-49.5 116zM776 1632q0 67 49.5 115.5t112.5 48.5q65 0 114 -48t49 -116t-49 -116t-114 -48 q-63 0 -112.5 48.5t-49.5 115.5z" />
<glyph unicode="&#x152;" horiz-adv-x="1984" d="M53 696q0 211 93 371t252 243t360 83h1138v-314h-604v-323h504v-314h-504v-129h633v-313h-1167q-201 0 -360 83t-252 242.5t-93 370.5zM434 696q0 -174 98.5 -277.5t266.5 -103.5h125v762h-125q-168 0 -266.5 -103.5t-98.5 -277.5z" />
<glyph unicode="&#x153;" horiz-adv-x="1984" d="M53 696q0 211 93 371t252 243t360 83h1138v-314h-604v-323h504v-314h-504v-129h633v-313h-1167q-201 0 -360 83t-252 242.5t-93 370.5zM434 696q0 -174 98.5 -277.5t266.5 -103.5h125v762h-125q-168 0 -266.5 -103.5t-98.5 -277.5z" />
<glyph unicode="&#x178;" horiz-adv-x="1482" d="M8 1393h410l315 -568l314 568h391l-525 -901v-492h-372v481zM381 1632q0 68 50 116t114 48q65 0 113.5 -48t48.5 -116t-48.5 -116t-113.5 -48q-64 0 -114 48t-50 116zM776 1632q0 67 49.5 115.5t112.5 48.5q66 0 115 -48t49 -116t-49 -116t-115 -48q-63 0 -112.5 48.5 t-49.5 115.5z" />
<glyph unicode="&#x2c6;" horiz-adv-x="1024" d="M174 1479l328 430q9 12 18 0l328 -430h-260l-76 80l-78 -80h-260z" />
<glyph unicode="&#x2dc;" horiz-adv-x="1024" d="M131 1507q21 152 92 230t164 78q44 0 89.5 -20t79.5 -40t50 -20q25 0 38.5 16.5t23.5 52.5l225 -28q-19 -149 -91.5 -228.5t-164.5 -79.5q-44 0 -89.5 20t-79.5 40t-50 20q-25 0 -38.5 -16.5t-23.5 -52.5z" />
<glyph unicode="&#x2000;" horiz-adv-x="957" />
<glyph unicode="&#x2001;" horiz-adv-x="1915" />
<glyph unicode="&#x2002;" horiz-adv-x="957" />
<glyph unicode="&#x2003;" horiz-adv-x="1915" />
<glyph unicode="&#x2004;" horiz-adv-x="638" />
<glyph unicode="&#x2005;" horiz-adv-x="478" />
<glyph unicode="&#x2006;" horiz-adv-x="319" />
<glyph unicode="&#x2007;" horiz-adv-x="319" />
<glyph unicode="&#x2008;" horiz-adv-x="239" />
<glyph unicode="&#x2009;" horiz-adv-x="383" />
<glyph unicode="&#x200a;" horiz-adv-x="106" />
<glyph unicode="&#x2010;" horiz-adv-x="647" d="M74 438v297h499v-297h-499z" />
<glyph unicode="&#x2011;" horiz-adv-x="647" d="M74 438v297h499v-297h-499z" />
<glyph unicode="&#x2012;" horiz-adv-x="647" d="M74 438v297h499v-297h-499z" />
<glyph unicode="&#x2013;" horiz-adv-x="831" d="M74 459v256h684v-256h-684z" />
<glyph unicode="&#x2014;" horiz-adv-x="1445" d="M74 459v256h1298v-256h-1298z" />
<glyph unicode="&#x2018;" d="M74 999q0 98 80 211l129 183h155l-76 -215q56 -19 88.5 -67t32.5 -112q0 -85 -59 -139.5t-141 -54.5q-86 0 -147.5 54.5t-61.5 139.5z" />
<glyph unicode="&#x2019;" d="M74 1214q0 85 59 140t141 55q86 0 147.5 -55t61.5 -140q0 -97 -80 -210l-129 -183h-155l76 215q-57 19 -89 66.5t-32 111.5z" />
<glyph unicode="&#x201a;" d="M74 186q0 85 59 140t141 55q86 0 147.5 -55t61.5 -140q0 -98 -80 -211l-129 -182h-155l76 215q-57 19 -89 66.5t-32 111.5z" />
<glyph unicode="&#x201c;" horiz-adv-x="1048" d="M74 999q0 98 80 211l129 183h155l-76 -215q56 -19 88.5 -67t32.5 -112q0 -85 -59 -139.5t-141 -54.5q-86 0 -147.5 54.5t-61.5 139.5zM565 999q0 98 80 211l129 183h156l-76 -215q56 -19 88.5 -67t32.5 -112q0 -85 -59.5 -139.5t-141.5 -54.5q-86 0 -147.5 54.5 t-61.5 139.5z" />
<glyph unicode="&#x201d;" horiz-adv-x="1048" d="M74 1214q0 85 59 140t141 55q86 0 147.5 -55t61.5 -140q0 -97 -80 -210l-129 -183h-155l76 215q-57 19 -89 66.5t-32 111.5zM565 1214q0 85 59.5 140t141.5 55q86 0 147.5 -55t61.5 -140q0 -97 -80 -210l-129 -183h-156l76 215q-57 19 -89 66.5t-32 111.5z" />
<glyph unicode="&#x201e;" horiz-adv-x="1048" d="M74 186q0 85 59 140t141 55q86 0 147.5 -55t61.5 -140q0 -98 -80 -211l-129 -182h-155l76 215q-57 19 -89 66.5t-32 111.5zM565 186q0 85 59.5 140t141.5 55q86 0 147.5 -55t61.5 -140q0 -98 -80 -211l-129 -182h-156l76 215q-57 19 -89 66.5t-32 111.5z" />
<glyph unicode="&#x2022;" horiz-adv-x="647" d="M51 614q0 115 81.5 194t191.5 79q109 0 190.5 -79t81.5 -194q0 -114 -81.5 -193t-190.5 -79t-191 79t-82 193z" />
<glyph unicode="&#x2026;" horiz-adv-x="1581" d="M74 180q0 87 60.5 144t144.5 57q82 0 143 -57t61 -144t-61 -143.5t-143 -56.5q-84 0 -144.5 56.5t-60.5 143.5zM586 180q0 87 60.5 144t144.5 57q82 0 143 -57t61 -144t-61 -143.5t-143 -56.5q-84 0 -144.5 56.5t-60.5 143.5zM1098 180q0 87 60.5 144t144.5 57 q82 0 143 -57t61 -144t-61 -143.5t-143 -56.5q-84 0 -144.5 56.5t-60.5 143.5z" />
<glyph unicode="&#x202f;" horiz-adv-x="383" />
<glyph unicode="&#x2039;" horiz-adv-x="581" d="M39 502q-3 8 0 16l168 356h344l-170 -364l170 -369h-344z" />
<glyph unicode="&#x203a;" horiz-adv-x="581" d="M31 141l170 365l-170 368h344l168 -360q3 -8 0 -16l-168 -357h-344z" />
<glyph unicode="&#x205f;" horiz-adv-x="478" />
<glyph unicode="&#x20ac;" horiz-adv-x="1564" d="M61 438v201h150q-2 18 -2 57v37h-148v201h185q71 215 255 345t410 130q216 0 359.5 -78t240.5 -221l-280 -190q-98 165 -316 165q-177 0 -274 -151h428v-201h-489v-37q0 -10 1 -29t1 -28h487v-201h-412q99 -133 271 -133q126 0 202 50.5t125 142.5l287 -185 q-102 -172 -250 -251.5t-360 -79.5q-225 0 -411 124t-265 332h-195z" />
<glyph unicode="&#x2122;" horiz-adv-x="1130" d="M39 1237v156h410v-156h-115v-311h-176v311h-119zM516 926v465q0 12 7 12.5t16 -8.5l239 -238l238 238q9 9 15.5 8.5t6.5 -12.5v-465h-166v131l-86 -88q-7 -7 -14 0l-88 88v-131h-168z" />
<glyph unicode="&#x25fc;" horiz-adv-x="1392" d="M0 0v1393h1393v-1393h-1393z" />
<glyph unicode="&#xfb01;" horiz-adv-x="1769" d="M121 0v1393h946v-314h-573v-323h505v-314h-505v-442h-373zM1268 0v1393h372v-1393h-372z" />
<glyph unicode="&#xfb02;" horiz-adv-x="2275" d="M121 0v1393h946v-314h-573v-323h505v-314h-505v-442h-373zM1260 0v1393h372v-1080h592v-313h-964z" />
<glyph unicode="&#xfb03;" horiz-adv-x="2908" d="M121 0v1393h946v-314h-573v-323h505v-314h-505v-442h-373zM1260 0v1393h946v-314h-574v-323h506v-314h-506v-442h-372zM2406 0v1393h373v-1393h-373z" />
<glyph unicode="&#xfb04;" horiz-adv-x="3414" d="M121 0v1393h946v-314h-573v-323h505v-314h-505v-442h-373zM1260 0v1393h946v-314h-574v-323h506v-314h-506v-442h-372zM2398 0v1393h373v-1080h592v-313h-965z" />
</font>
</defs>
</svg>
